El Infiltrado Del KKKlan (2018) 4K UHD HDR Latino

362 vistas
1 estrella2 estrellas3 estrellas4 estrellas5 estrellas (Ninguna valoración todavía)
Cargando…

Información de El Infiltrado Del KKKlan (2018) 4K UHD HDR Latino

Datos de la película

  • Calidad: 4K HDR
  • Audio: Español Latino AC3 5.1 BLURAY - Ingles AC3 5.1 BLURAY
  • Subtitulos: Español Latino PGS - Ingles PGS
  • Resolución: 3840x1606p
  • Formato: MKV
  • Codec: HEVC
  • Encoder: CinefiloCool
  • Mediainfo: Clic para Mostrar Datos Ver
  • El Infiltrado del KKKlan (2018) UHD HDR Latino.mkv
    Format                      : Matroska
    Format version              : Version 4
    File size                   : 22.2 GiB
    Duration                    : 2 h 14 min
    Overall bit rate            : 23.6 Mb/s
    Movie name                  : CinemaniaHDD.Net
    Encoded date                : UTC 2019-02-12 05:03:09
    Writing application         : mkvmerge v30.1.0 ('Forever And More') 64-bit
    Writing library             : libebml v1.3.6 + libmatroska v1.4.9

    Video
    ID                          : 1
    Format                      : HEVC
    Format/Info                 : High Efficiency Video Coding
    Commercial name             : HDR10
    Format profile              : Main [email protected]@High
    Codec ID                    : V_MPEGH/ISO/HEVC
    Duration                    : 2 h 14 min
    Bit rate                    : 22.3 Mb/s
    Width                       : 3 840 pixels
    Height                      : 1 606 pixels
    Display aspect ratio        : 2.40:1
    Frame rate mode             : Constant
    Frame rate                  : 23.976 (24000/1001) FPS
    Color space                 : YUV
    Chroma subsampling          : 4:2:0 (Type 2)
    Bit depth                   : 10 bits
    Bits/(Pixel*Frame)          : 0.151
    Stream size                 : 21.0 GiB (94%)
    Title                       : 2160p HDR [Bluray]
    Writing library             : x265 2.8+58-d17bc7714ed2:[Windows][GCC 8.2.0][64 bit] 10bit
    Encoding settings           : cpuid=1111039 / frame-threads=5 / numa-pools=36 / wpp / no-pmode / no-pme / no-psnr / no-ssim / log-level=2 / input-csp=1 / input-res=3840x1606 / interlace=0 / total-frames=193944 / level-idc=51 / high-tier=1 / uhd-bd=0 / ref=4 / no-allow-non-conformance / repeat-headers / annexb / aud / hrd / info / hash=0 / no-temporal-layers / no-open-gop / min-keyint=24 / keyint=240 / gop-lookahead=0 / bframes=4 / b-adapt=2 / b-pyramid / bframe-bias=0 / rc-lookahead=25 / lookahead-slices=4 / scenecut=40 / radl=0 / no-intra-refresh / ctu=64 / min-cu-size=8 / rect / no-amp / max-tu-size=32 / tu-inter-depth=1 / tu-intra-depth=1 / limit-tu=0 / rdoq-level=2 / dynamic-rd=0.00 / no-ssim-rd / signhide / no-tskip / nr-intra=0 / nr-inter=0 / no-constrained-intra / no-strong-intra-smoothing / max-merge=3 / limit-refs=3 / limit-modes / me=3 / subme=3 / merange=57 / temporal-mvp / weightp / no-weightb / no-analyze-src-pics / deblock=-3:-3 / no-sao / no-sao-non-deblock / rd=4 / no-early-skip / rskip / no-fast-intra / no-tskip-fast / no-cu-lossless / no-b-intra / no-splitrd-skip / rdpenalty=0 / psy-rd=2.00 / psy-rdoq=1.00 / no-rd-refine / no-lossless / cbqpoffs=0 / crqpoffs=0 / rc=crf / crf=17.0 / qcomp=0.60 / qpstep=4 / stats-write=0 / stats-read=0 / vbv-maxrate=160000 / vbv-bufsize=160000 / vbv-init=0.9 / crf-max=0.0 / crf-min=0.0 / ipratio=1.40 / pbratio=1.30 / aq-mode=1 / aq-strength=1.00 / cutree / zone-count=0 / no-strict-cbr / qg-size=32 / no-rc-grain / qpmax=69 / qpmin=0 / no-const-vbv / sar=1 / overscan=0 / videoformat=5 / range=0 / colorprim=9 / transfer=16 / colormatrix=9 / chromaloc=1 / chromaloc-top=2 / chromaloc-bottom=2 / display-window=0 / master-display=G(13250,34500)B(7500,3000)R(34000,16000)WP(15635,16450)L(10000000,50) / max-cll=552,132 / min-luma=0 / max-luma=1023 / log2-max-poc-lsb=8 / vui-timing-info / vui-hrd-info / slices=1 / no-opt-qp-pps / no-opt-ref-list-length-pps / no-multi-pass-opt-rps / scenecut-bias=0.05 / no-opt-cu-delta-qp / no-aq-motion / hdr / hdr-opt / no-dhdr10-opt / no-idr-recovery-sei / analysis-reuse-level=5 / scale-factor=0 / refine-intra=0 / refine-inter=0 / refine-mv=0 / no-limit-sao / ctu-info=0 / no-lowpass-dct / refine-mv-type=0 / copy-pic=1 / max-ausize-factor=1.0 / no-dynamic-refine / no-single-sei
    Default                     : Yes
    Forced                      : No
    Color range                 : Limited
    Color primaries             : BT.2020
    Transfer characteristics    : PQ
    Matrix coefficients         : BT.2020 non-constant
    Mastering display color pri : Display P3
    Mastering display luminance : min: 0.0050 cd/m2, max: 1000 cd/m2
    Maximum Content Light Level : 552 cd/m2
    Maximum Frame-Average Light : 132 cd/m2

    Audio #1
    ID                          : 2
    Format                      : AC-3
    Format/Info                 : Audio Coding 3
    Commercial name             : Dolby Digital
    Codec ID                    : A_AC3
    Duration                    : 2 h 14 min
    Bit rate mode               : Constant
    Bit rate                    : 640 kb/s
    Channel(s)                  : 6 channels
    Channel layout              : L R C LFE Ls Rs
    Sampling rate               : 48.0 kHz
    Frame rate                  : 31.250 FPS (1536 SPF)
    Bit depth                   : 16 bits
    Compression mode            : Lossy
    Stream size                 : 617 MiB (3%)
    Title                       : AC3_5.1_Bluray_Esp
    Language                    : Spanish
    Service kind                : Complete Main
    Default                     : Yes
    Forced                      : Yes

    Audio #2
    ID                          : 3
    Format                      : AC-3
    Format/Info                 : Audio Coding 3
    Commercial name             : Dolby Digital
    Codec ID                    : A_AC3
    Duration                    : 2 h 14 min
    Bit rate mode               : Constant
    Bit rate                    : 640 kb/s
    Channel(s)                  : 6 channels
    Channel layout              : L R C LFE Ls Rs
    Sampling rate               : 48.0 kHz
    Frame rate                  : 31.250 FPS (1536 SPF)
    Bit depth                   : 16 bits
    Compression mode            : Lossy
    Stream size                 : 617 MiB (3%)
    Title                       : AC3_5.1_Bluray_Eng
    Language                    : English
    Service kind                : Complete Main
    Default                     : No
    Forced                      : No

    Text #1
    ID                          : 4
    Format                      : PGS
    Muxing mode                 : zlib
    Codec ID                    : S_HDMV/PGS
    Codec ID/Info               : Picture based subtitle format used on BDs/HD-DVDs
    Duration                    : 2 h 12 min
    Bit rate                    : 1 374 b/s
    Count of elements           : 116
    Stream size                 : 1.30 MiB (0%)
    Title                       : Sub_Forzados [PGS]
    Language                    : Spanish
    Default                     : Yes
    Forced                      : No

    Text #2
    ID                          : 5
    Format                      : PGS
    Muxing mode                 : zlib
    Codec ID                    : S_HDMV/PGS
    Codec ID/Info               : Picture based subtitle format used on BDs/HD-DVDs
    Duration                    : 2 h 13 min
    Bit rate                    : 54.2 kb/s
    Count of elements           : 5310
    Stream size                 : 51.6 MiB (0%)
    Title                       : Sub_Esp [PGS]
    Language                    : Spanish
    Default                     : No
    Forced                      : No

    Text #3
    ID                          : 6
    Format                      : PGS
    Muxing mode                 : zlib
    Codec ID                    : S_HDMV/PGS
    Codec ID/Info               : Picture based subtitle format used on BDs/HD-DVDs
    Duration                    : 2 h 8 min
    Bit rate                    : 60.7 kb/s
    Count of elements           : 5274
    Stream size                 : 55.7 MiB (0%)
    Title                       : Sub_Eng [PGS]
    Language                    : English
    Default                     : No
    Forced                      : No

    Menu
    00:00:00.000                : :00:00:00.000
    00:04:10.250                : :00:04:10.250
    00:13:54.876                : :00:13:54.876
    00:23:16.604                : :00:23:16.604
    00:27:56.508                : :00:27:56.508
    00:36:10.668                : :00:36:10.668
    00:43:21.557                : :00:43:21.557
    00:48:30.616                : :00:48:30.616
    00:54:58.629                : :00:54:58.629
    00:59:48.543                : :00:59:48.543
    01:07:04.771                : :01:07:04.771
    01:16:37.802                : :01:16:37.802
    01:22:20.394                : :01:22:20.394
    01:29:38.123                : :01:29:38.123
    01:39:10.653                : :01:39:10.653
    01:48:27.042                : :01:48:27.042
    01:56:05.584                : :01:56:05.584
    02:00:43.945                : :02:00:43.945
    02:03:57.430                : :02:03:57.430
    02:09:03.569                : :02:09:03.569

  • Peso: 22.2 GiB

Sinopsis

Descargar El Infiltrado Del KKKlan (2018) 4K UHD HDR Latino, Mega, Google Drive. A principios de los años setenta, una época de gran agitación social con la encarnizada lucha por los derechos civiles como telón de fondo, Ron Stallworth se convierte en el primer detective negro del departamento de policía de Colorado Springs, pero es recibido con escepticismo y hostilidad por los mandos y los agentes. Sin amedrentarse, decide seguir adelante y hacer algo por su comunidad llevando a cabo una misión muy peligrosa: infiltrarse en el Ku Klux Klan y exponerlo ante la ciudad.

Ficha técnica

  • Titulo original: BlacKkKlansman
  • Fecha de lanzamiento: 30-07-2018 (United States of America)
  • Director: Spike Lee
  • Género: 4K HDR, 4K UHD, Crimen, Drama
  • Puntuación: 0.0 0 votos
  • Duración:
    2h 16m

Video trailer de la película

Enlaces de descarga

Rip de Bluray

Descargar El Infiltrado Del KKKlan (2018) 4K UHD HDR Latino




Aportes de DPeliculasHDmega la pass es:dpeliculashdmega.org Aportes de CinemaniaHD la pass es:cinemaniahdd.com
Guardado en : 4K HDR , 4K UHD , Crimen , Drama

Películas relacionadas

  • El Vacio (2018) Temporada 1 NF 1080p Latino

    2018
    El Vacio (2018) Temporada 1 NF 1080p Latino

    0.0 0h 25m 2018

    Tres adolescentes despiertan en un reino extraño lleno de portales mágicos, enigmas desconcertantes...

    Director: Vito Viscomi

    Género: Animación

    Actores: Mark Hildreth

  • Wolf Warrior 2 (2017) 1080p Latino

    2017
    Wolf Warrior 2 (2017) 1080p Latino

    0.0 2h 6m 2017

    Secuela de la película de acción exitosa "Wolf Warrior" (2015) La operación más peligrosa de las...

    Director: Wu Jing

    Género: Acción

    Actores: Yu Qian

  • The Front Runner (2018) Full 1080p Latino

    2018
    The Front Runner (2018) Full 1080p Latino

    0.0 1h 53m 2018

    Narra la campaña presidencial del senador estadounidense Gary Hart, que tuvo lugar en 1988, momento...

    Director: Jason Reitman

    Género: Drama

    Actores: William Walker

  • Papillon (2017) 1080p Latino

    2017
    Papillon (2017) 1080p Latino

    0.0 1h 49m 2017

    Red Granite Pictures producte esta nueva versión del clásico homónimo de 1973 dirigido por Franklin...

    Director: Michael Noer

    Género: Drama

    Actores: Yorick van Wageningen

Comentarios 0