×

¿Problemas para descargar con Mozilla, EDGE? Deshabilita la opción "Abrir vinculos en una pestaña nueva" tal como lo muestra ésta imagen.

El infiltrado (2016) HD 1080p Latino – CMHDD

343 vistas

Información de El infiltrado (2016) HD 1080p Latino – CMHDD

Datos de la película

  • Calidad: 1080p
  • Audio: Español Latino AC3 5.1 BLURAY - Ingles AC3 5.1 BLURAY
  • Subtitulos: Español Latino SRT
  • Resolución: 1920x802p
  • Formato: MKV
  • Codec: H.264
  • Encoder: Dracarys
  • Mediainfo: Clic para Mostrar Datos Ver
  • Format                      : Matroska
    Format version              : Version 4
    File size                   : 4.14 GiB
    Duration                    : 2 h 7 min
    Overall bit rate            : 4 667 kb/s
    Movie name                  : El infiltrado (2016) HD 1080p Latino - CMHDD
    Encoded date                : UTC 2020-06-16 02:12:47
    Writing application         : mkvmerge v46.0.0 ('No Deeper Escape') 64-bit
    Writing library             : libebml v1.3.10 + libmatroska v1.5.2

    Video
    ID                          : 1
    Format                      : AVC
    Format/Info                 : Advanced Video Codec
    Format profile              : High@L4.1
    Format settings             : CABAC / 5 Ref Frames
    Format settings, CABAC      : Yes
    Format settings, Reference  : 5 frames
    Codec ID                    : V_MPEG4/ISO/AVC
    Duration                    : 2 h 7 min
    Bit rate                    : 3 500 kb/s
    Width                       : 1 920 pixels
    Height                      : 802 pixels
    Display aspect ratio        : 2.40:1
    Frame rate mode             : Constant
    Frame rate                  : 23.976 (24000/1001) FPS
    Color space                 : YUV
    Chroma subsampling          : 4:2:0
    Bit depth                   : 8 bits
    Scan type                   : Progressive
    Bits/(Pixel*Frame)          : 0.095
    Stream size                 : 3.01 GiB (73%)
    Writing library             : x264 core 157 r2935 545de2f
    Encoding settings           : cabac=1 / ref=5 / deblock=1:0:0 / analyse=0x3:0x113 / me=hex / subme=8 / psy=1 / psy_rd=1.00:0.00 / mixed_ref=1 / me_range=16 / chroma_me=1 / trellis=2 / 8x8dct=1 / cqm=0 / deadzone=21,11 / fast_pskip=1 / chroma_qp_offset=-2 / threads=24 / lookahead_threads=4 / sliced_threads=0 / nr=0 / decimate=1 / interlaced=0 / bluray_compat=0 / constrained_intra=0 / bframes=3 / b_pyramid=2 / b_adapt=1 / b_bias=0 / direct=3 / weightb=1 / open_gop=0 / weightp=2 / keyint=240 / keyint_min=24 / scenecut=40 / intra_refresh=0 / rc_lookahead=50 / rc=abr / mbtree=1 / bitrate=3500 / ratetol=1.0 / qcomp=0.60 / qpmin=0 / qpmax=69 / qpstep=4 / vbv_maxrate=62500 / vbv_bufsize=78125 / nal_hrd=none / filler=0 / ip_ratio=1.40 / aq=1:1.00
    Default                     : Yes
    Forced                      : No
    Color range                 : Limited
    Color primaries             : BT.709
    Transfer characteristics    : BT.709
    Matrix coefficients         : BT.709

    Audio #1
    ID                          : 2
    Format                      : AC-3
    Format/Info                 : Audio Coding 3
    Commercial name             : Dolby Digital
    Codec ID                    : A_AC3
    Duration                    : 2 h 7 min
    Bit rate mode               : Constant
    Bit rate                    : 640 kb/s
    Channel(s)                  : 6 channels
    Channel layout              : L R C LFE Ls Rs
    Sampling rate               : 48.0 kHz
    Frame rate                  : 31.250 FPS (1536 SPF)
    Compression mode            : Lossy
    Stream size                 : 582 MiB (14%)
    Language                    : Spanish
    Service kind                : Complete Main
    Default                     : Yes
    Forced                      : No

    Audio #2
    ID                          : 3
    Format                      : AC-3
    Format/Info                 : Audio Coding 3
    Commercial name             : Dolby Digital
    Codec ID                    : A_AC3
    Duration                    : 2 h 7 min
    Bit rate mode               : Constant
    Bit rate                    : 640 kb/s
    Channel(s)                  : 6 channels
    Channel layout              : L R C LFE Ls Rs
    Sampling rate               : 48.0 kHz
    Frame rate                  : 31.250 FPS (1536 SPF)
    Compression mode            : Lossy
    Stream size                 : 582 MiB (14%)
    Language                    : English
    Service kind                : Complete Main
    Default                     : No
    Forced                      : No

    Text
    ID                          : 4
    Format                      : UTF-8
    Codec ID                    : S_TEXT/UTF8
    Codec ID/Info               : UTF-8 Plain Text
    Duration                    : 1 h 58 min
    Bit rate                    : 61 b/s
    Count of elements           : 1543
    Stream size                 : 53.5 KiB (0%)
    Language                    : Spanish
    Default                     : No
    Forced                      : No

    Menu
    00:00:00.000                : :Chapter 1
    00:09:01.666                : :Chapter 2
    00:17:00.686                : :Chapter 3
    00:24:48.654                : :Chapter 4
    00:28:36.882                : :Chapter 5
    00:35:12.193                : :Chapter 6
    00:42:31.340                : :Chapter 7
    00:51:42.725                : :Chapter 8
    00:57:40.832                : :Chapter 9
    01:02:47.806                : :Chapter 10
    01:07:41.474                : :Chapter 11
    01:17:04.662                : :Chapter 12
    01:24:18.554                : :Chapter 13
    01:31:43.832                : :Chapter 14
    01:40:58.970                : :Chapter 15
    01:47:44.249                : :Chapter 16
    01:52:50.222                : :Chapter 17
    01:58:14.129                : :Chapter 18

  • Peso: 4.14 GiB

Sinopsis

Basada en una historia real ocurrida en los años 80, narra cómo un policía estadounidense se infiltra en una banda de narcos colombianos. Para lograr ese objetivo, Robert Mazur (Bryan Cranston) se infiltrará junto Kathy Ertz (Diane Kruger), quien fingirá ser su futura esposa y Emir Abreu (John Leguizamo), un policía con métodos poco tradicionales para codearse con la cúpula de la organización criminal y ser parte de la mayor operación encubierta antidroga de la historia.

Ficha técnica

Video trailer de la película

Enlaces de descarga

Rip de Bluray

Descargar El infiltrado (2016) HD 1080p Latino – CMHDD




Aportes de DPeliculasHDmega la pass es:dpeliculashdmega.org Aportes de CinemaniaHD la pass es:cinemaniahdd.com
Guardado en : Crimen , Drama , HD 1080p , Suspenso

Películas relacionadas

descargar El infiltrado (2016) HD 1080p Latino – CMHDD 1080p 1080p gratis, El infiltrado (2016) HD 1080p Latino – CMHDD 1080p mega 1 link, El infiltrado (2016) HD 1080p Latino – CMHDD 1080p pelicula completa, descargar El infiltrado (2016) HD 1080p Latino – CMHDD 1080p gratis en mega.

El infiltrado (2016) HD 1080p Latino – CMHDD pelicula full hd, El infiltrado (2016) HD 1080p Latino – CMHDD mega latino, El infiltrado (2016) HD 1080p Latino – CMHDD 4k latino, El infiltrado (2016) HD 1080p Latino – CMHDD pelicula completa, El infiltrado (2016) HD 1080p Latino – CMHDD descargar gratis, descargar El infiltrado (2016) HD 1080p Latino – CMHDD pelicula latino, El infiltrado (2016) HD 1080p Latino – CMHDD 1 link mega, El infiltrado (2016) HD 1080p Latino – CMHDD 1 link google drive, El infiltrado (2016) HD 1080p Latino – CMHDD hd 1080p latino.
Comentarios 0