×

¿Problemas para descargar con Mozilla, EDGE? Deshabilita la opción "Abrir vinculos en una pestaña nueva" tal como lo muestra ésta imagen.

El infiltrado (2016) Full HD 1080p Latino – CMHDD

315 vistas

Información de El infiltrado (2016) Full HD 1080p Latino – CMHDD

Datos de la película

  • Calidad: Full 1080p
  • Audio: Español Latino DTS 5.1 BLURAY - Ingles DTS 5.1 BLURAY
  • Subtitulos: Español Latino SRT
  • Resolución: 1920x1080p
  • Formato: MKV
  • Codec: H.264
  • Encoder: Dracarys
  • Mediainfo: Clic para Mostrar Datos Ver
  • Format                      : Matroska
    Format version              : Version 4
    File size                   : 12.3 GiB
    Duration                    : 2 h 7 min
    Overall bit rate mode       : Variable
    Overall bit rate            : 13.8 Mb/s
    Movie name                  : El infiltrado (2016) Full HD 1080p Latino - CMHDD
    Encoded date                : UTC 2020-06-16 02:02:44
    Writing application         : mkvmerge v46.0.0 ('No Deeper Escape') 64-bit
    Writing library             : libebml v1.3.10 + libmatroska v1.5.2

    Video
    ID                          : 1
    Format                      : AVC
    Format/Info                 : Advanced Video Codec
    Format profile              : High@L4.1
    Format settings             : CABAC / 4 Ref Frames
    Format settings, CABAC      : Yes
    Format settings, Reference  : 4 frames
    Codec ID                    : V_MPEG4/ISO/AVC
    Duration                    : 2 h 7 min
    Bit rate                    : 9 606 kb/s
    Width                       : 1 920 pixels
    Height                      : 1 080 pixels
    Display aspect ratio        : 16:9
    Frame rate mode             : Constant
    Frame rate                  : 23.976 (24000/1001) FPS
    Color space                 : YUV
    Chroma subsampling          : 4:2:0
    Bit depth                   : 8 bits
    Scan type                   : Progressive
    Bits/(Pixel*Frame)          : 0.193
    Stream size                 : 8.53 GiB (69%)
    Writing library             : x264 core 157 r2935 545de2f
    Encoding settings           : cabac=1 / ref=4 / deblock=1:0:0 / analyse=0x3:0x133 / me=tesa / subme=11 / psy=1 / psy_rd=1.00:0.00 / mixed_ref=1 / me_range=24 / chroma_me=1 / trellis=2 / 8x8dct=1 / cqm=0 / deadzone=21,11 / fast_pskip=0 / chroma_qp_offset=-2 / threads=24 / lookahead_threads=6 / sliced_threads=0 / nr=0 / decimate=1 / interlaced=0 / bluray_compat=0 / constrained_intra=0 / bframes=16 / b_pyramid=2 / b_adapt=2 / b_bias=0 / direct=3 / weightb=1 / open_gop=0 / weightp=2 / keyint=240 / keyint_min=24 / scenecut=40 / intra_refresh=0 / rc_lookahead=60 / rc=crf / mbtree=1 / crf=20.0 / qcomp=0.60 / qpmin=0 / qpmax=69 / qpstep=4 / vbv_maxrate=62500 / vbv_bufsize=78125 / crf_max=0.0 / nal_hrd=none / filler=0 / ip_ratio=1.40 / aq=1:1.00
    Default                     : Yes
    Forced                      : No
    Color range                 : Limited
    Color primaries             : BT.709
    Transfer characteristics    : BT.709
    Matrix coefficients         : BT.709

    Audio #1
    ID                          : 2
    Format                      : DTS
    Format/Info                 : Digital Theater Systems
    Codec ID                    : A_DTS
    Duration                    : 2 h 7 min
    Bit rate mode               : Constant
    Bit rate                    : 768 kb/s
    Channel(s)                  : 6 channels
    Channel layout              : C L R Ls Rs LFE
    Sampling rate               : 48.0 kHz
    Frame rate                  : 93.750 FPS (512 SPF)
    Bit depth                   : 24 bits
    Compression mode            : Lossy
    Stream size                 : 698 MiB (6%)
    Language                    : Spanish
    Default                     : Yes
    Forced                      : No

    Audio #2
    ID                          : 3
    Format                      : DTS XLL
    Format/Info                 : Digital Theater Systems
    Commercial name             : DTS-HD Master Audio
    Codec ID                    : A_DTS
    Duration                    : 2 h 7 min
    Bit rate mode               : Variable
    Bit rate                    : 3 451 kb/s
    Channel(s)                  : 6 channels
    Channel layout              : C L R Ls Rs LFE
    Sampling rate               : 48.0 kHz
    Frame rate                  : 93.750 FPS (512 SPF)
    Bit depth                   : 24 bits
    Compression mode            : Lossless
    Stream size                 : 3.07 GiB (25%)
    Language                    : English
    Default                     : No
    Forced                      : No

    Text #1
    ID                          : 4
    Format                      : UTF-8
    Codec ID                    : S_TEXT/UTF8
    Codec ID/Info               : UTF-8 Plain Text
    Duration                    : 1 h 58 min
    Bit rate                    : 61 b/s
    Count of elements           : 1543
    Stream size                 : 53.5 KiB (0%)
    Language                    : Spanish
    Default                     : No
    Forced                      : No

    Text #2
    ID                          : 5
    Format                      : PGS
    Muxing mode                 : zlib
    Codec ID                    : S_HDMV/PGS
    Codec ID/Info               : Picture based subtitle format used on BDs/HD-DVDs
    Duration                    : 1 h 58 min
    Bit rate                    : 38.6 kb/s
    Count of elements           : 3088
    Stream size                 : 32.8 MiB (0%)
    Language                    : Spanish
    Default                     : No
    Forced                      : No

    Menu
    00:00:00.000                : :Chapter 1
    00:09:01.666                : :Chapter 2
    00:17:00.686                : :Chapter 3
    00:24:48.654                : :Chapter 4
    00:28:36.882                : :Chapter 5
    00:35:12.193                : :Chapter 6
    00:42:31.340                : :Chapter 7
    00:51:42.725                : :Chapter 8
    00:57:40.832                : :Chapter 9
    01:02:47.806                : :Chapter 10
    01:07:41.474                : :Chapter 11
    01:17:04.662                : :Chapter 12
    01:24:18.554                : :Chapter 13
    01:31:43.832                : :Chapter 14
    01:40:58.970                : :Chapter 15
    01:47:44.249                : :Chapter 16
    01:52:50.222                : :Chapter 17
    01:58:14.129                : :Chapter 18

  • Peso: 12.3 GiB

Sinopsis

Basada en una historia real ocurrida en los años 80, narra cómo un policía estadounidense se infiltra en una banda de narcos colombianos. Para lograr ese objetivo, Robert Mazur (Bryan Cranston) se infiltrará junto Kathy Ertz (Diane Kruger), quien fingirá ser su futura esposa y Emir Abreu (John Leguizamo), un policía con métodos poco tradicionales para codearse con la cúpula de la organización criminal y ser parte de la mayor operación encubierta antidroga de la historia.

Ficha técnica

Video trailer de la película

Enlaces de descarga

Rip de Bluray

Descargar El infiltrado (2016) Full HD 1080p Latino – CMHDD




Aportes de DPeliculasHDmega la pass es:dpeliculashdmega.org Aportes de CinemaniaHD la pass es:cinemaniahdd.com

Películas relacionadas

  • Wire Room (2022) HD 1080p Latino

    Wire Room (2022) HD 1080p Latino

    2022
    Wire Room (2022) HD 1080p Latino

    1h 37m 2022

    Descargar Wire Room (2022) HD 1080p Latino. Mientras está de servicio en la sala de cables, un agente...

    Director: Matt Eskandari

    Género: Acción

    Actores: Texas Battle

  • Wire Room (2022) PLACEBO Full HD 1080p Latino

    Wire Room (2022) PLACEBO Full HD 1080p Latino

    2022
    Wire Room (2022) PLACEBO Full HD 1080p Latino

    1h 37m 2022

    Descargar Wire Room (2022) PLACEBO Full HD 1080p Latino. Mientras está de servicio en la sala de cables,...

    Director: Matt Eskandari

    Género: Acción

    Actores: Texas Battle

  • Wire Room (2022) REMUX 1080p Latino

    Wire Room (2022) REMUX 1080p Latino

    2022
    Wire Room (2022) REMUX 1080p Latino

    1h 37m 2022

    Descargar Wire Room (2022) REMUX 1080p Latino. Mientras está de servicio en la sala de cables, un agente...

    Director: Matt Eskandari

    Género: Acción

    Actores: Texas Battle

  • Alarido (2022) HD 1080p Latino

    Alarido (2022) HD 1080p Latino

    2022
    Alarido (2022) HD 1080p Latino

    1h 29m 2022

    Descargar Alarido (2022) HD 1080p Latino. Una joven madre soltera es cautiva junto con sus dos hijos...

    Director: D.J. Caruso

    Género: HD 1080p

    Actores: Vincent Gallo

  • Alarido (2022) PLACEBO Full HD 1080p Latino

    Alarido (2022) PLACEBO Full HD 1080p Latino

    2022
    Alarido (2022) PLACEBO Full HD 1080p Latino

    1h 29m 2022

    Descargar Alarido (2022) PLACEBO Full HD 1080p Latino. Una joven madre soltera es cautiva junto con sus...

    Director: D.J. Caruso

    Género: FULL 1080p Plateadas

    Actores: Vincent Gallo

descargar El infiltrado (2016) Full HD 1080p Latino – CMHDD Full 1080p 1080p gratis, El infiltrado (2016) Full HD 1080p Latino – CMHDD Full 1080p mega 1 link, El infiltrado (2016) Full HD 1080p Latino – CMHDD Full 1080p pelicula completa, descargar El infiltrado (2016) Full HD 1080p Latino – CMHDD Full 1080p gratis en mega.

El infiltrado (2016) Full HD 1080p Latino – CMHDD pelicula full hd, El infiltrado (2016) Full HD 1080p Latino – CMHDD mega latino, El infiltrado (2016) Full HD 1080p Latino – CMHDD 4k latino, El infiltrado (2016) Full HD 1080p Latino – CMHDD pelicula completa, El infiltrado (2016) Full HD 1080p Latino – CMHDD descargar gratis, descargar El infiltrado (2016) Full HD 1080p Latino – CMHDD pelicula latino, El infiltrado (2016) Full HD 1080p Latino – CMHDD 1 link mega, El infiltrado (2016) Full HD 1080p Latino – CMHDD 1 link google drive, El infiltrado (2016) Full HD 1080p Latino – CMHDD hd 1080p latino.
Comentarios 2
  • gerrard - 25 junio, 2020

    No carga la publicidad que lleva a los links.

    • Dracarys - 25 junio, 2020

      Usa un VPN para cambiar de pais… eso es problema de tu pais ya que no hay publicidad para ciertos articulos