El imperio del sol (1987) Full 1080p Latino

1.785 vistas
1 estrella2 estrellas3 estrellas4 estrellas5 estrellas (3 votos, promedio: 5,00 de 5)
Cargando…

Información de El imperio del sol (1987) Full 1080p Latino

Datos de la película

  • Calidad: Full 1080p
  • Audio: Español Latino AC3 2.0 BLURAY - Ingles DTS 5.1 BLURAY
  • Subtitulos: Español Latino PGS - Ingles PGS
  • Resolución: 1920x1080p
  • Formato: MKV
  • Codec: H.264
  • Encoder: Dracarys
  • Mediainfo: Clic para Mostrar Datos Ver
  • Format                                   : Matroska
    Format version                           : Version 4 / Version 2
    File size                                : 16.2 GiB
    Duration                                 : 2 h 32 min
    Overall bit rate                         : 15.2 Mb/s
    Movie name                               : CinemaniaHDD.net
    Encoded date                             : UTC 2018-10-03 00:47:55 / UTC 2018-10-02T05:24:28Z
    Writing application                      : mkvmerge v15.0.0 ('Duel with the Devil') 64-bit
    Writing library                          : libebml v1.3.5 + libmatroska v1.4.5 / Lavf57.7.2

    Video
    ID                                       : 1
    Format                                   : AVC
    Format/Info                              : Advanced Video Codec
    Format profile                           : High@L4.1
    Format settings                          : CABAC / 4 Ref Frames
    Format settings, CABAC                   : Yes
    Format settings, RefFrames               : 4 frames
    Codec ID                                 : V_MPEG4/ISO/AVC
    Duration                                 : 2 h 32 min
    Bit rate                                 : 13.2 Mb/s
    Width                                    : 1 920 pixels
    Height                                   : 1 080 pixels
    Display aspect ratio                     : 16:9
    Frame rate mode                          : Constant
    Frame rate                               : 23.976 (24000/1001) FPS
    Color space                              : YUV
    Chroma subsampling                       : 4:2:0
    Bit depth                                : 8 bits
    Scan type                                : Progressive
    Bits/(Pixel*Frame)                       : 0.265
    Stream size                              : 14.1 GiB (87%)
    Writing library                          : x264 core 148 r2708 86b7198
    Encoding settings                        : cabac=1 / ref=4 / deblock=1:0:0 / analyse=0x3:0x133 / me=esa / subme=10 / psy=1 / psy_rd=1.00:0.00 / mixed_ref=1 / me_range=24 / chroma_me=1 / trellis=2 / 8x8dct=1 / cqm=0 / deadzone=21,11 / fast_pskip=1 / chroma_qp_offset=-2 / threads=34 / lookahead_threads=5 / sliced_threads=0 / nr=0 / decimate=1 / interlaced=0 / bluray_compat=0 / constrained_intra=0 / bframes=8 / b_pyramid=2 / b_adapt=2 / b_bias=0 / direct=3 / weightb=1 / open_gop=0 / weightp=2 / keyint=240 / keyint_min=24 / scenecut=40 / intra_refresh=0 / rc_lookahead=60 / rc=crf / mbtree=1 / crf=20.0 / qcomp=0.60 / qpmin=0 / qpmax=69 / qpstep=4 / vbv_maxrate=62500 / vbv_bufsize=78125 / crf_max=0.0 / nal_hrd=none / filler=0 / ip_ratio=1.40 / aq=1:1.00
    Language                                 : English
    Default                                  : Yes
    Forced                                   : No
    Color range                              : Limited
    Color primaries                          : BT.709
    Transfer characteristics                 : BT.709
    Matrix coefficients                      : BT.709
    Statistics Tags Issue                    : mkvmerge v15.0.0 ('Duel with the Devil') 64-bit 2018-10-03 00:47:55 / mkvmerge v15.0.0 ('Duel with the Devil') 64-bit 2018-10-03 00:47:55 / UTC 2018-10-02T05:24:28Z
    FromStats_BitRate                        : 13461859
    FromStats_Duration                       : 02:32:49.160000000
    FromStats_FrameCount                     : 219840
    FromStats_StreamSize                     : 15429243240

    Audio #1
    ID                                       : 2
    Format                                   : AC-3
    Format/Info                              : Audio Coding 3
    Mode                                     : Dolby Digital
    Format settings, Endianness              : Big
    Codec ID                                 : A_AC3
    Duration                                 : 2 h 32 min
    Bit rate mode                            : Constant
    Bit rate                                 : 192 kb/s
    Channel(s)                               : 2 channels
    Channel positions                        : Front: L R
    Sampling rate                            : 48.0 kHz
    Frame rate                               : 31.250 FPS (1536 SPF)
    Bit depth                                : 16 bits
    Compression mode                         : Lossy
    Stream size                              : 210 MiB (1%)
    Language                                 : Spanish
    Service kind                             : Complete Main
    Default                                  : Yes
    Forced                                   : No
    Statistics Tags Issue                    : mkvmerge v15.0.0 ('Duel with the Devil') 64-bit 2018-10-03 00:47:55 / mkvmerge v15.0.0 ('Duel with the Devil') 64-bit 2018-10-03 00:47:55 / UTC 2018-10-02T05:24:28Z
    FromStats_BitRate                        : 192000
    FromStats_Duration                       : 02:32:49.216000000
    FromStats_FrameCount                     : 286538
    FromStats_StreamSize                     : 220061184

    Audio #2
    ID                                       : 3
    Format                                   : DTS
    Format/Info                              : Digital Theater Systems
    Mode                                     : 16
    Format settings, Endianness              : Big
    Codec ID                                 : A_DTS
    Duration                                 : 2 h 32 min
    Bit rate mode                            : Constant
    Bit rate                                 : 1 509 kb/s
    Channel(s)                               : 6 channels
    Channel positions                        : Front: L C R, Side: L R, LFE
    Sampling rate                            : 48.0 kHz
    Frame rate                               : 93.750 FPS (512 SPF)
    Bit depth                                : 24 bits
    Compression mode                         : Lossy
    Stream size                              : 1.61 GiB (10%)
    Language                                 : English
    Default                                  : No
    Forced                                   : No
    Statistics Tags Issue                    : mkvmerge v15.0.0 ('Duel with the Devil') 64-bit 2018-10-03 00:47:55 / mkvmerge v15.0.0 ('Duel with the Devil') 64-bit 2018-10-03 00:47:55 / UTC 2018-10-02T05:24:28Z
    FromStats_BitRate                        : 1508999
    FromStats_Duration                       : 02:32:49.195000000
    FromStats_FrameCount                     : 859612
    FromStats_StreamSize                     : 1729539344

    Text #1
    ID                                       : 4
    Format                                   : PGS
    Muxing mode                              : zlib
    Codec ID                                 : S_HDMV/PGS
    Codec ID/Info                            : Picture based subtitle format used on BDs/HD-DVDs
    Language                                 : English
    Default                                  : No
    Forced                                   : No
    Statistics Tags Issue                    : mkvmerge v15.0.0 ('Duel with the Devil') 64-bit 2018-10-03 00:47:55 / mkvmerge v15.0.0 ('Duel with the Devil') 64-bit 2018-10-03 00:47:55 / UTC 2018-10-02T05:24:28Z
    FromStats_BitRate                        : 14250
    FromStats_Duration                       : 02:32:27.555000000
    FromStats_FrameCount                     : 1756
    FromStats_StreamSize                     : 16294374

    Text #2
    ID                                       : 5
    Format                                   : PGS
    Muxing mode                              : zlib
    Codec ID                                 : S_HDMV/PGS
    Codec ID/Info                            : Picture based subtitle format used on BDs/HD-DVDs
    Language                                 : Spanish
    Default                                  : No
    Forced                                   : No
    Statistics Tags Issue                    : mkvmerge v15.0.0 ('Duel with the Devil') 64-bit 2018-10-03 00:47:55 / mkvmerge v15.0.0 ('Duel with the Devil') 64-bit 2018-10-03 00:47:55 / UTC 2018-10-02T05:24:28Z
    FromStats_BitRate                        : 13217
    FromStats_Duration                       : 02:32:27.388000000
    FromStats_FrameCount                     : 1502
    FromStats_StreamSize                     : 15113225

    Menu
    00:00:00.000                             : :Chapter 1
    00:01:14.575                             : :Chapter 2
    00:04:19.718                             : :Chapter 3
    00:07:44.381                             : :Chapter 4
    00:09:22.520                             : :Chapter 5
    00:13:19.215                             : :Chapter 6
    00:15:32.223                             : :Chapter 7
    00:20:46.287                             : :Chapter 8
    00:23:34.997                             : :Chapter 9
    00:28:02.764                             : :Chapter 10
    00:32:15.142                             : :Chapter 11
    00:36:41.241                             : :Chapter 12
    00:41:46.254                             : :Chapter 13
    00:43:50.044                             : :Chapter 14
    00:49:00.855                             : :Chapter 15
    00:52:23.932                             : :Chapter 16
    00:54:19.256                             : :Chapter 17
    01:01:03.910                             : :Chapter 18
    01:05:38.393                             : :Chapter 19
    01:08:21.097                             : :Chapter 20
    01:09:55.858                             : :Chapter 21
    01:13:44.837                             : :Chapter 22
    01:16:20.701                             : :Chapter 23
    01:20:20.316                             : :Chapter 24
    01:24:16.510                             : :Chapter 25
    01:26:56.586                             : :Chapter 26
    01:30:19.456                             : :Chapter 27
    01:37:04.902                             : :Chapter 28
    01:39:23.958                             : :Chapter 29
    01:42:58.839                             : :Chapter 30
    01:47:11.008                             : :Chapter 31
    01:48:50.441                             : :Chapter 32
    01:52:21.235                             : :Chapter 33
    01:57:23.411                             : :Chapter 34
    01:59:08.642                             : :Chapter 35
    02:01:27.572                             : :Chapter 36
    02:03:14.429                             : :Chapter 37
    02:05:00.451                             : :Chapter 38
    02:07:16.003                             : :Chapter 39
    02:09:11.911                             : :Chapter 40
    02:12:12.007                             : :Chapter 41
    02:16:22.299                             : :Chapter 42
    02:20:10.277                             : :Chapter 43
    02:22:10.772                             : :Chapter 44
    02:26:17.811                             : :Chapter 45

  • Peso: 16.2 GiB

Sinopsis

Cuando, en diciembre de 1941, el ejército japonés ocupa Shanghai, la privilegiada vida de James Graham, un niño inglés de clase alta, toca a su fin. Es separado de sus padres y confinado en un campo de concentración próximo a un aeropuerto militar chino. En un ambiente dominado por la tristeza y la miseria se verá obligado a madurar prematuramente, y eso condicionará su visión del mundo.

Ficha técnica

Video trailer de la película

Enlaces de descarga

Rip de Bluray

Descargar El imperio del sol (1987) Full 1080p Latino




Aportes de DPeliculasHDmega la pass es:dpeliculashdmega.org Aportes de CinemaniaHD la pass es:cinemaniahdd.com

Películas relacionadas

  • La balada de Buster Scruggs (2018) NF 1080p Latino

    2018
    La balada de Buster Scruggs (2018) NF 1080p Latino

    0.0 2h 12m 2018

    Los siempre singulares Joel y Ethan Cohen escriben y dirigen esta antología de seis historias del Salvaje...

    Director: Joel Coen

    Género: Comedia

    Actores: Zoe Kazan

  • La pequeña brujita (2018) AMZN 1080p Latino

    2018
    La pequeña brujita (2018) AMZN 1080p Latino

    5.0 1h 43m 2018

    Descargar La pequeña brujita (2018) AMZN 1080p Latino, Mega, Google Drive. La pequeña bruja sólo tiene...

    Director: Mike Schaerer

    Género: Comedia

    Actores: Verena Bosshard

  • Puzzle (2018) Web-DL 1080p Latino

    2018
    Puzzle (2018) Web-DL 1080p Latino

    0.0 1h 43m 2018

    Descargar Puzzle (2018) Web-DL 1080p Latino; Mega, Google Drive. Una mujer acude a Atlantic City para...

    Director: Marc Turtletaub

    Género: Drama

    Actores: Myrna Cabello

Comentarios 1
  • slash - 07 octubre, 2018

    ¡¡¡Graciasssssss!!!, les quedo genial el ripeo.