×

¿Problemas para descargar con Mozilla, EDGE? Deshabilita la opción "Abrir vinculos en una pestaña nueva" tal como lo muestra ésta imagen.

El Hubiera si Existe (2019) Web-DL 1080p Latino

1.099 vistas

Información de El Hubiera si Existe (2019) Web-DL 1080p Latino

Datos de la película

  • Calidad: WEBDL
  • Audio: Español Latino AC3 5.1 iTunes
  • Subtitulos: No
  • Resolución: 1912x792p
  • Formato: MKV
  • Codec: H.264
  • Encoder: CinemaniaHD
  • Mediainfo: Clic para Mostrar Datos Ver
  • El Hubiera Si Existe (2019) Web-DL 1080p Latino-CMHDD.mkv
    Format                      : Matroska
    Format version              : Version 4
    File size                   : 3.31 GiB
    Duration                    : 1 h 36 min
    Overall bit rate            : 4 934 kb/s
    Movie name                  : El Hubiera Si Existe (2019) CinemaniaHDD.Net
    Encoded date                : UTC 2020-03-25 19:20:18
    Writing application         : mkvmerge v42.0.0 ('Overtime') 64-bit
    Writing library             : libebml v1.3.10 + libmatroska v1.5.2
    Attachments                 : CINEMANIAHD.png

    Video
    ID                          : 1
    Format                      : AVC
    Format/Info                 : Advanced Video Codec
    Format profile              : High@L4
    Format settings             : CABAC / 5 Ref Frames
    Format settings, CABAC      : Yes
    Format settings, ReFrames   : 5 frames
    Codec ID                    : V_MPEG4/ISO/AVC
    Duration                    : 1 h 36 min
    Bit rate                    : 4 548 kb/s
    Width                       : 1 912 pixels
    Height                      : 792 pixels
    Display aspect ratio        : 2.40:1
    Frame rate mode             : Constant
    Frame rate                  : 23.976 FPS
    Color space                 : YUV
    Chroma subsampling          : 4:2:0
    Bit depth                   : 8 bits
    Scan type                   : Progressive
    Bits/(Pixel*Frame)          : 0.125
    Stream size                 : 3.05 GiB (92%)
    Title                       : HD1080p [Web]
    Default                     : Yes
    Forced                      : Yes
    Color range                 : Limited
    Color primaries             : BT.709
    Transfer characteristics    : BT.709
    Matrix coefficients         : BT.709

    Audio
    ID                          : 2
    Format                      : AC-3
    Format/Info                 : Audio Coding 3
    Commercial name             : Dolby Digital
    Codec ID                    : A_AC3
    Duration                    : 1 h 36 min
    Bit rate mode               : Constant
    Bit rate                    : 384 kb/s
    Channel(s)                  : 6 channels
    Channel layout              : L R C LFE Ls Rs
    Sampling rate               : 48.0 kHz
    Frame rate                  : 31.250 FPS (1536 SPF)
    Bit depth                   : 16 bits
    Compression mode            : Lossy
    Delay relative to video     : -42 ms
    Stream size                 : 264 MiB (8%)
    Title                       : AC3_5.1_Web_Esp
    Language                    : Spanish
    Service kind                : Complete Main
    Default                     : Yes
    Forced                      : Yes

    Menu
    00:00:00.000                : en:1
    00:13:12.876                : en:2
    00:25:49.674                : en:3
    00:38:50.371                : en:4
    00:51:24.833                : en:5
    01:03:08.202                : en:6
    01:14:13.407                : en:7
    01:24:18.677                : en:8

  • Peso: 3.31 GiB

Sinopsis

Descargar El Hubiera si Existe (2019) Web-DL 1080p Latino. Elisa es una chica pasada de moda que recibe la visita de su futuro yo, quien le aconseja que se arriesgue. e invita a Carlos, su mejor amigo, a una cita. Ella siempre se ha sentido atraída por él.

Ficha técnica

Video trailer de la película

Enlaces de descarga

Rip de Bluray

Descargar El Hubiera si Existe (2019) Web-DL 1080p Latino




Aportes de DPeliculasHDmega la pass es:dpeliculashdmega.org Aportes de CinemaniaHD la pass es:cinemaniahdd.com
Guardado en : Comedia

Películas relacionadas

  • Shotgun Wedding (2022) AMZN WEB-DL 1080p Latino

    Shotgun Wedding (2022) AMZN WEB-DL 1080p Latino

    2022
    Shotgun Wedding (2022) AMZN WEB-DL 1080p Latino

    1h 41m 2022

    Darcy y Tom reúnen a sus familias para la boda de destino definitiva, pero cuando toman como rehenes...

    Director: Jason Moore

    Género: Acción

    Actores: Steve Coulter

  • M3GAN (2023) AMZN WEB-DL 4K UHD HDR Latino

    M3GAN (2023) AMZN WEB-DL 4K UHD HDR Latino

    2022
    M3GAN (2023) AMZN WEB-DL 4K UHD HDR Latino

    1h 42m 2022

    Descargar M3GAN (2023) AMZN WEB-DL 4K UHD HDR Latino. Cuando Gemma se convierte en la cuidadora de su...

    Director: Stephen W. Moore

    Género: 4K HDR

    Actores: Violet McGraw

  • M3GAN (2022) MA WEB-DL 1080p Latino

    M3GAN (2022) MA WEB-DL 1080p Latino

    2022
    M3GAN (2022) MA WEB-DL 1080p Latino

    1h 42m 2022

    Descargar M3GAN (2022) MA WEB-DL 1080p Latino. Cuando Gemma se convierte en la cuidadora de su sobrina...

    Director: Stephen W. Moore

    Género: Ciencia ficción

    Actores: Violet McGraw

  • Noche sin paz (2022) PLACEBO Full HD 1080p Latino

    Noche sin paz (2022) PLACEBO Full HD 1080p Latino

    2022
    Noche sin paz (2022) PLACEBO Full HD 1080p Latino

    1h 41m 2022

    Descargar Noche sin paz (2022) PLACEBO Full HD 1080p Latino. Cuando un equipo de mercenarios irrumpe...

    Director: Tyshana Hobson

    Género: Acción

    Actores: Yoon Cha-Lee

  • Noche sin paz (2022) HD 1080p Latino

    Noche sin paz (2022) HD 1080p Latino

    2022
    Noche sin paz (2022) HD 1080p Latino

    1h 41m 2022

    Descargar Noche sin paz (2022) HD 1080p Latino. Cuando un equipo de mercenarios irrumpe en Nochebuena...

    Director: Tyshana Hobson

    Género: Acción

    Actores: Yoon Cha-Lee

descargar El Hubiera si Existe (2019) Web-DL 1080p Latino WEBDL 1080p gratis, El Hubiera si Existe (2019) Web-DL 1080p Latino WEBDL mega 1 link, El Hubiera si Existe (2019) Web-DL 1080p Latino WEBDL pelicula completa, descargar El Hubiera si Existe (2019) Web-DL 1080p Latino WEBDL gratis en mega.

El Hubiera si Existe (2019) Web-DL 1080p Latino pelicula full hd, El Hubiera si Existe (2019) Web-DL 1080p Latino mega latino, El Hubiera si Existe (2019) Web-DL 1080p Latino 4k latino, El Hubiera si Existe (2019) Web-DL 1080p Latino pelicula completa, El Hubiera si Existe (2019) Web-DL 1080p Latino descargar gratis, descargar El Hubiera si Existe (2019) Web-DL 1080p Latino pelicula latino, El Hubiera si Existe (2019) Web-DL 1080p Latino 1 link mega, El Hubiera si Existe (2019) Web-DL 1080p Latino 1 link google drive, El Hubiera si Existe (2019) Web-DL 1080p Latino hd 1080p latino.
Comentarios 0