×

¿Problemas para descargar con Mozilla, EDGE? Deshabilita la opción "Abrir vinculos en una pestaña nueva" tal como lo muestra ésta imagen.

El Hombre del Norte (2022) MA WEB-DL 4K UHD HDR Latino

2.732 vistas

Información de El Hombre del Norte (2022) MA WEB-DL 4K UHD HDR Latino

Datos de la película

  • Calidad: WEBDL
  • Audio: Español Latino AC3 5.1 WEB-DL - Ingles AC3 5.1 WEB-DL
  • Subtitulos: Español Latino SRT- FORZADOS SRT
  • Resolución: 3840x2160p
  • Formato: MKV
  • Codec: HEVC
  • Encoder: Melkor
  • Mediainfo: Clic para Mostrar Datos Ver
  • El Hombre Del Norte (2022) MA WEB UHD HDR Latino.mkv
    Format                      : Matroska
    Format version              : Version 4
    File size                   : 24.4 GiB
    Duration                    : 2 h 17 min
    Overall bit rate            : 25.5 Mb/s
    Movie name                  : The Northman (2022) CinemaniaHDD.Net
    Encoded date                : UTC 2022-05-12 23:34:39
    Writing application         : mkvmerge v56.1.0 ('My Friend') 64-bit
    Writing library             : libebml v1.4.2 + libmatroska v1.6.4
    Attachments                 : CINEMANIAHD.png

    Video
    ID                          : 1
    Format                      : HEVC
    Format/Info                 : High Efficiency Video Coding
    Format profile              : Main 10@L5@High
    HDR format                  : SMPTE ST 2086, HDR10 compatible
    Codec ID                    : V_MPEGH/ISO/HEVC
    Duration                    : 2 h 17 min
    Bit rate                    : 24.3 Mb/s
    Width                       : 3 840 pixels
    Height                      : 2 160 pixels
    Display aspect ratio        : 16:9
    Frame rate mode             : Constant
    Frame rate                  : 23.976 (24000/1001) FPS
    Color space                 : YUV
    Chroma subsampling          : 4:2:0 (Type 2)
    Bit depth                   : 10 bits
    Bits/(Pixel*Frame)          : 0.122
    Stream size                 : 23.3 GiB (95%)
    Title                       : Web 2160p HDR [CinemaniaHDD]
    Language                    : English
    Default                     : Yes
    Forced                      : No
    Color range                 : Limited
    Color primaries             : BT.2020
    Transfer characteristics    : PQ
    Matrix coefficients         : BT.2020 non-constant
    Mastering display color pri : BT.2020
    Mastering display luminance : min: 0.0050 cd/m2, max: 1000 cd/m2
    Maximum Content Light Level : 1000 cd/m2
    Maximum Frame-Average Light : 81 cd/m2

    Audio #1
    ID                          : 2
    Format                      : AC-3
    Format/Info                 : Audio Coding 3
    Commercial name             : Dolby Digital
    Codec ID                    : A_AC3
    Duration                    : 2 h 17 min
    Bit rate mode               : Constant
    Bit rate                    : 448 kb/s
    Channel(s)                  : 6 channels
    Channel layout              : L R C LFE Ls Rs
    Sampling rate               : 48.0 kHz
    Frame rate                  : 31.250 FPS (1536 SPF)
    Compression mode            : Lossy
    Stream size                 : 439 MiB (2%)
    Title                       : Español Latino [CinemaniaHDD]
    Language                    : Spanish
    Service kind                : Complete Main
    Default                     : Yes
    Forced                      : Yes

    Audio #2
    ID                          : 3
    Format                      : E-AC-3 JOC
    Format/Info                 : Enhanced AC-3 with Joint Object Coding
    Commercial name             : Dolby Digital Plus with Dolby Atmos
    Codec ID                    : A_EAC3
    Duration                    : 2 h 17 min
    Bit rate mode               : Constant
    Bit rate                    : 768 kb/s
    Channel(s)                  : 6 channels
    Channel layout              : L R C LFE Ls Rs
    Sampling rate               : 48.0 kHz
    Frame rate                  : 31.250 FPS (1536 SPF)
    Compression mode            : Lossy
    Stream size                 : 753 MiB (3%)
    Title                       : Ingles [CinemaniaHDD]
    Language                    : English
    Service kind                : Complete Main
    Default                     : No
    Forced                      : No
    Complexity index            : 16
    Number of dynamic objects   : 15
    Bed channel count           : 1 channel
    Bed channel configuration   : LFE

    Text #1
    ID                          : 4
    Format                      : UTF-8
    Codec ID                    : S_TEXT/UTF8
    Codec ID/Info               : UTF-8 Plain Text
    Duration                    : 2 h 2 min
    Bit rate                    : 1 b/s
    Count of elements           : 40
    Stream size                 : 1.35 KiB (0%)
    Title                       : Forzados-SRT [CinemaniaHDD]
    Language                    : Spanish
    Default                     : Yes
    Forced                      : Yes

    Text #2
    ID                          : 5
    Format                      : UTF-8
    Codec ID                    : S_TEXT/UTF8
    Codec ID/Info               : UTF-8 Plain Text
    Duration                    : 2 h 8 min
    Bit rate                    : 29 b/s
    Count of elements           : 1009
    Stream size                 : 28.0 KiB (0%)
    Title                       : Español-SRT [CinemaniaHDD]
    Language                    : Spanish
    Default                     : No
    Forced                      : No

    Text #3
    ID                          : 6
    Format                      : UTF-8
    Codec ID                    : S_TEXT/UTF8
    Codec ID/Info               : UTF-8 Plain Text
    Duration                    : 2 h 7 min
    Bit rate                    : 43 b/s
    Count of elements           : 1630
    Stream size                 : 40.7 KiB (0%)
    Title                       : Ingles-SRT [CinemaniaHDD]
    Language                    : English
    Default                     : No
    Forced                      : No

    Menu
    00:00:00.000                : Chapter 1
    00:08:51.000                : Chapter 2
    00:15:45.000                : Chapter 3
    00:22:01.000                : Chapter 4
    00:30:20.000                : Chapter 5
    00:39:40.000                : Chapter 6
    00:46:13.000                : Chapter 7
    00:51:38.000                : Chapter 8
    00:58:08.000                : Chapter 9
    01:05:16.000                : Chapter 10
    01:11:49.000                : Chapter 11
    01:16:43.000                : Chapter 12
    01:23:29.000                : Chapter 13
    01:27:09.000                : Chapter 14
    01:35:35.000                : Chapter 15
    01:40:54.000                : Chapter 16
    01:46:30.000                : Chapter 17
    01:55:36.000                : Chapter 18
    02:00:58.000                : Chapter 19
    02:08:31.000                : Chapter 20

  • Peso: 24.4 GiB

Sinopsis

Descargar El Hombre del Norte (2022) MA WEB-DL 4K UHD HDR Latino. El príncipe Amleth está a punto de convertirse en hombre pero, en ese momento, su tío asesina brutalmente a su padre y secuestra a la madre del niño. Dos décadas después, Amleth es un vikingo que tiene la misión de salvar a su madre.

Ficha técnica

Video trailer de la película

Enlaces de descarga

Rip de Bluray

Descargar El Hombre del Norte (2022) MA WEB-DL 4K UHD HDR Latino




Aportes de DPeliculasHDmega la pass es:dpeliculashdmega.org Aportes de CinemaniaHD la pass es:cinemaniahdd.com
Guardado en : 4K HDR , 4K UHD , Acción , Aventura , Drama , Fantasía

Películas relacionadas

descargar El Hombre del Norte (2022) MA WEB-DL 4K UHD HDR Latino WEBDL 1080p gratis, El Hombre del Norte (2022) MA WEB-DL 4K UHD HDR Latino WEBDL mega 1 link, El Hombre del Norte (2022) MA WEB-DL 4K UHD HDR Latino WEBDL pelicula completa, descargar El Hombre del Norte (2022) MA WEB-DL 4K UHD HDR Latino WEBDL gratis en mega.

El Hombre del Norte (2022) MA WEB-DL 4K UHD HDR Latino pelicula full hd, El Hombre del Norte (2022) MA WEB-DL 4K UHD HDR Latino mega latino, El Hombre del Norte (2022) MA WEB-DL 4K UHD HDR Latino 4k latino, El Hombre del Norte (2022) MA WEB-DL 4K UHD HDR Latino pelicula completa, El Hombre del Norte (2022) MA WEB-DL 4K UHD HDR Latino descargar gratis, descargar El Hombre del Norte (2022) MA WEB-DL 4K UHD HDR Latino pelicula latino, El Hombre del Norte (2022) MA WEB-DL 4K UHD HDR Latino 1 link mega, El Hombre del Norte (2022) MA WEB-DL 4K UHD HDR Latino 1 link google drive, El Hombre del Norte (2022) MA WEB-DL 4K UHD HDR Latino hd 1080p latino.
Comentarios 0