×

¿Problemas para descargar con Mozilla, EDGE? Deshabilita la opción "Abrir vinculos en una pestaña nueva" tal como lo muestra ésta imagen.

El Hombre del Norte (2022) HD 1080p Latino

993 vistas

Información de El Hombre del Norte (2022) HD 1080p Latino

Datos de la película

  • Calidad: 1080p
  • Audio: Español Latino AC3 5.1 WEB-DL - Ingles AC3 5.1 BLURAY
  • Subtitulos: Español Latino SRT- FORZADOS SRT
  • Resolución: 1920x960p
  • Formato: MKV
  • Codec: H.264
  • Encoder: Melkor
  • Mediainfo: Clic para Mostrar Datos Ver
  • El Hombre Del Norte (2022) HD 1080p Latino.mkv
    Format                      : Matroska
    Format version              : Version 4
    File size                   : 5.23 GiB
    Duration                    : 2 h 16 min
    Overall bit rate            : 5 475 kb/s
    Movie name                  : The Northman (2022) CinemaniaHDD.Net
    Encoded date                : UTC 2022-05-22 21:42:22
    Writing application         : mkvmerge v56.1.0 ('My Friend') 64-bit
    Writing library             : libebml v1.4.2 + libmatroska v1.6.4
    Attachments                 : CINEMANIAHD.png

    Video
    ID                          : 1
    Format                      : AVC
    Format/Info                 : Advanced Video Codec
    Format profile              : High@L4.1
    Format settings             : CABAC / 4 Ref Frames
    Format settings, CABAC      : Yes
    Format settings, Reference  : 4 frames
    Codec ID                    : V_MPEG4/ISO/AVC
    Duration                    : 2 h 16 min
    Bit rate                    : 4 576 kb/s
    Width                       : 1 920 pixels
    Height                      : 960 pixels
    Display aspect ratio        : 2.000
    Frame rate mode             : Constant
    Frame rate                  : 23.976 (24000/1001) FPS
    Color space                 : YUV
    Chroma subsampling          : 4:2:0
    Bit depth                   : 8 bits
    Scan type                   : Progressive
    Bits/(Pixel*Frame)          : 0.104
    Stream size                 : 4.38 GiB (84%)
    Title                       : HD1080p [CinemaniaHDD]
    Writing library             : x264 core 163 r3059 b684ebe0
    Encoding settings           : cabac=1 / ref=4 / deblock=1:-1:-1 / analyse=0x3:0x133 / me=umh / subme=9 / psy=1 / psy_rd=1.00:0.15 / mixed_ref=1 / me_range=16 / chroma_me=1 / trellis=2 / 8x8dct=1 / cqm=0 / deadzone=21,11 / fast_pskip=1 / chroma_qp_offset=-3 / threads=24 / lookahead_threads=2 / sliced_threads=0 / nr=0 / decimate=1 / interlaced=0 / bluray_compat=0 / constrained_intra=0 / bframes=3 / b_pyramid=2 / b_adapt=2 / b_bias=0 / direct=3 / weightb=1 / open_gop=0 / weightp=2 / keyint=240 / keyint_min=24 / scenecut=40 / intra_refresh=0 / rc_lookahead=60 / rc=crf / mbtree=1 / crf=21.5 / qcomp=0.60 / qpmin=0 / qpmax=69 / qpstep=4 / vbv_maxrate=62500 / vbv_bufsize=78125 / crf_max=0.0 / nal_hrd=none / filler=0 / ip_ratio=1.40 / aq=1:1.00
    Default                     : Yes
    Forced                      : Yes
    Color range                 : Limited
    Color primaries             : BT.709
    Transfer characteristics    : BT.709
    Matrix coefficients         : BT.709

    Audio #1
    ID                          : 2
    Format                      : AC-3
    Format/Info                 : Audio Coding 3
    Commercial name             : Dolby Digital
    Codec ID                    : A_AC3
    Duration                    : 2 h 16 min
    Bit rate mode               : Constant
    Bit rate                    : 448 kb/s
    Channel(s)                  : 6 channels
    Channel layout              : L R C LFE Ls Rs
    Sampling rate               : 48.0 kHz
    Frame rate                  : 31.250 FPS (1536 SPF)
    Compression mode            : Lossy
    Delay relative to video     : -5 ms
    Stream size                 : 439 MiB (8%)
    Title                       : Español Latino [CinemaniaHDD]
    Language                    : Spanish
    Service kind                : Complete Main
    Default                     : Yes
    Forced                      : Yes

    Audio #2
    ID                          : 3
    Format                      : AC-3
    Format/Info                 : Audio Coding 3
    Commercial name             : Dolby Digital
    Codec ID                    : A_AC3
    Duration                    : 2 h 16 min
    Bit rate mode               : Constant
    Bit rate                    : 448 kb/s
    Channel(s)                  : 6 channels
    Channel layout              : L R C LFE Ls Rs
    Sampling rate               : 48.0 kHz
    Frame rate                  : 31.250 FPS (1536 SPF)
    Compression mode            : Lossy
    Delay relative to video     : -5 ms
    Stream size                 : 439 MiB (8%)
    Title                       : Ingles [CinemaniaHDD]
    Language                    : English
    Service kind                : Complete Main
    Default                     : No
    Forced                      : No

    Text #1
    ID                          : 4
    Format                      : UTF-8
    Codec ID                    : S_TEXT/UTF8
    Codec ID/Info               : UTF-8 Plain Text
    Duration                    : 2 h 2 min
    Bit rate                    : 1 b/s
    Count of elements           : 40
    Stream size                 : 1.35 KiB (0%)
    Title                       : Forzados-SRT [CinemaniaHDD]
    Language                    : Spanish
    Default                     : Yes
    Forced                      : Yes

    Text #2
    ID                          : 5
    Format                      : UTF-8
    Codec ID                    : S_TEXT/UTF8
    Codec ID/Info               : UTF-8 Plain Text
    Duration                    : 2 h 8 min
    Bit rate                    : 29 b/s
    Count of elements           : 860
    Stream size                 : 28.0 KiB (0%)
    Title                       : Español-SRT [CinemaniaHDD]
    Language                    : Spanish
    Default                     : No
    Forced                      : No

    Text #3
    ID                          : 6
    Format                      : UTF-8
    Codec ID                    : S_TEXT/UTF8
    Codec ID/Info               : UTF-8 Plain Text
    Duration                    : 2 h 7 min
    Bit rate                    : 40 b/s
    Count of elements           : 1538
    Stream size                 : 38.1 KiB (0%)
    Title                       : Ingles-SRT [CinemaniaHDD]
    Language                    : English
    Default                     : No
    Forced                      : No

    Menu
    00:00:00.000                : Chapter 01
    00:08:53.992                : Chapter 02
    00:15:47.613                : Chapter 03
    00:22:04.615                : Chapter 04
    00:30:23.697                : Chapter 05
    00:39:44.340                : Chapter 06
    00:46:18.401                : Chapter 07
    00:51:43.267                : Chapter 08
    00:58:14.032                : Chapter 09
    01:05:22.335                : Chapter 10
    01:11:55.019                : Chapter 11
    01:16:49.563                : Chapter 12
    01:23:36.094                : Chapter 13
    01:27:16.690                : Chapter 14
    01:35:42.862                : Chapter 15
    01:41:02.390                : Chapter 16
    01:46:38.225                : Chapter 17
    01:55:44.855                : Chapter 18
    02:01:06.968                : Chapter 19
    02:08:41.255                : Chapter 20
    El Hombre Del Norte (2022) BDRip 1080p Latino[CMHDD].mkv
    File size                   : 19.5 GiB
    Duration                    : 2 h 16 min
    Movie name                  : The Northman (2022) CinemaniaHDD.Net
    Video
    Format                      : AVC
    Bit rate                    : 18.4 Mb/s
    Width                       : 1 920 pixels
    Height                      : 960 pixels
    Frame rate                  : 23.976 (24000/1001) FPS
    Audio #1
    Format                      : AC-3
    Bit rate                    : 448 kb/s
    Channel(s)                  : 6 channels
    Sampling rate               : 48.0 kHz
    Title                       : Español Latino [CinemaniaHDD]
    Language                    : Spanish
    Audio #2
    Format                      : DTS
    Bit rate                    : 1 509 kb/s
    Channel(s)                  : 6 channels
    Sampling rate               : 48.0 kHz
    Title                       : Ingles [CinemaniaHDD]
    Language                    : English
    Subtitulos: Forzados-SRT, Español-SRT, Ingles-SRT

  • Peso: 5.23 GiB | 19.5 GiB

Sinopsis

Descargar El Hombre del Norte (2022) HD 1080p Latino. El príncipe Amleth está a punto de convertirse en hombre pero, en ese momento, su tío asesina brutalmente a su padre y secuestra a la madre del niño. Dos décadas después, Amleth es un vikingo que tiene la misión de salvar a su madre.

Nota: Version Ligera & Pesada!!!

Ficha técnica

Video trailer de la película

Enlaces de descarga

Rip de Bluray

Descargar El Hombre del Norte (2022) HD 1080p Latino




Aportes de DPeliculasHDmega la pass es:dpeliculashdmega.org Aportes de CinemaniaHD la pass es:cinemaniahdd.com
Guardado en : Acción , Aventura , Fantasía , HD 1080p , Suspenso

Películas relacionadas

  • Scrooge: Cuento De Navidad (2022) NF WEB-DL 1080p Latino

    Scrooge: Cuento De Navidad (2022) NF WEB-DL 1080p Latino

    2022
    Scrooge: Cuento De Navidad (2022) NF WEB-DL 1080p Latino

    1h 37m 2022

    Descargar Scrooge Cuento De Navidad (2022) NF WEB-DL 1080p Latino. En la víspera de Navidad, el egoísta...

    Director: Stephen Donnelly

    Género: Animación

    Actores: Trevor Dion Nicholas

  • La Guerra Del Futuro (2022) NF WEB-DL 1080p Latino

    La Guerra Del Futuro (2022) NF WEB-DL 1080p Latino

    2022
    La Guerra Del Futuro (2022) NF WEB-DL 1080p Latino

    1h 41m 2022

    Descargar La Guerra Del Futuro (2022) NF WEB-DL 1080p Latino. Tras la caída de un meteorito que alberga...

    Director: Ng Yuen-fai

    Género: Acción

    Actores: Tse Kwan-Ho

  • The Independent (2022) PCOK WEB-DL 1080p Latino

    The Independent (2022) PCOK WEB-DL 1080p Latino

    2022
    The Independent (2022) PCOK WEB-DL 1080p Latino

    1h 48m 2022

    Una joven periodista descubre una conspiración que involucra a un candidato presidencial de Estados...

    Director: Amy Rice

    Género: Suspenso

    Actores: Zane Pais

  • Super… ¿quién? (2021) HD 1080p Latino

    Super… ¿quién? (2021) HD 1080p Latino

    2022
    Super… ¿quién? (2021) HD 1080p Latino

    1h 22m 2022

    Descargar Super... ¿quién? (2021) HD 1080p Latino. Cedric (Philippe Lacheau) intenta ganarse la vida...

    Director: Philippe Lacheau

    Género: Acción

    Actores: Yves Yan

descargar El Hombre del Norte (2022) HD 1080p Latino 1080p 1080p gratis, El Hombre del Norte (2022) HD 1080p Latino 1080p mega 1 link, El Hombre del Norte (2022) HD 1080p Latino 1080p pelicula completa, descargar El Hombre del Norte (2022) HD 1080p Latino 1080p gratis en mega.

El Hombre del Norte (2022) HD 1080p Latino pelicula full hd, El Hombre del Norte (2022) HD 1080p Latino mega latino, El Hombre del Norte (2022) HD 1080p Latino 4k latino, El Hombre del Norte (2022) HD 1080p Latino pelicula completa, El Hombre del Norte (2022) HD 1080p Latino descargar gratis, descargar El Hombre del Norte (2022) HD 1080p Latino pelicula latino, El Hombre del Norte (2022) HD 1080p Latino 1 link mega, El Hombre del Norte (2022) HD 1080p Latino 1 link google drive, El Hombre del Norte (2022) HD 1080p Latino hd 1080p latino.
Comentarios 0