El hombre de Acero (2013) 1080p Latino

688 vistas
1 estrella2 estrellas3 estrellas4 estrellas5 estrellas (5 votos, promedio: 4,20 de 5)
Cargando…

Información de El hombre de Acero (2013) 1080p Latino

Datos de la película

  • Calidad: 1080p
  • Audio: Español Latino AC3 5.1 BLURAY - Ingles AC3 5.1 BLURAY
  • Subtitulos: Español Latino SRT - Ingles SRT
  • Resolución: 1920x800p
  • Formato: MKV
  • Codec: H.264
  • Encoder: CinefiloCool
  • Mediainfo: Clic para Mostrar Datos Ver
  • El Hombre De Acero (2013) 1080p Latino.mkv
    Format                      : Matroska
    Format version              : Version 4
    File size                   : 4.59 GiB
    Duration                    : 2 h 23 min
    Overall bit rate mode       : Variable
    Overall bit rate            : 4 589 kb/s
    Movie name                  : CinemaniaHDD.Net
    Encoded date                : UTC 2019-01-10 01:03:11 / UTC 2019-01-08T13:56:05Z
    Writing application         : mkvmerge v29.0.0 ('Like It Or Not') 64-bit
    Writing library             : libebml v1.3.6 + libmatroska v1.4.9 / Lavf57.7.2

    Video
    ID                          : 1
    Format                      : AVC
    Format/Info                 : Advanced Video Codec
    Format profile              : [email protected]
    Format settings             : CABAC / 5 Ref Frames
    Format settings, CABAC      : Yes
    Format settings, ReFrames   : 5 frames
    Codec ID                    : V_MPEG4/ISO/AVC
    Duration                    : 2 h 23 min
    Bit rate mode               : Variable
    Bit rate                    : 3 500 kb/s
    Width                       : 1 920 pixels
    Height                      : 800 pixels
    Display aspect ratio        : 2.40:1
    Frame rate mode             : Constant
    Frame rate                  : 23.976 (24000/1001) FPS
    Color space                 : YUV
    Chroma subsampling          : 4:2:0
    Bit depth                   : 8 bits
    Scan type                   : Progressive
    Bits/(Pixel*Frame)          : 0.095
    Stream size                 : 3.41 GiB (74%)
    Title                       : HD 1080P [Bluray]
    Writing library             : x264 core 155 r2901 7d0ff22
    Encoding settings           : cabac=1 / ref=5 / deblock=1:0:0 / analyse=0x3:0x133 / me=umh / subme=9 / psy=1 / psy_rd=1.00:0.00 / mixed_ref=1 / me_range=16 / chroma_me=1 / trellis=2 / 8x8dct=1 / cqm=0 / deadzone=21,11 / fast_pskip=1 / chroma_qp_offset=-2 / threads=25 / lookahead_threads=2 / sliced_threads=0 / nr=0 / decimate=1 / interlaced=0 / bluray_compat=0 / constrained_intra=0 / bframes=3 / b_pyramid=2 / b_adapt=2 / b_bias=0 / direct=3 / weightb=1 / open_gop=0 / weightp=2 / keyint=240 / keyint_min=24 / scenecut=40 / intra_refresh=0 / rc_lookahead=60 / rc=2pass / mbtree=1 / bitrate=3500 / ratetol=1.0 / qcomp=0.60 / qpmin=0 / qpmax=69 / qpstep=4 / cplxblur=20.0 / qblur=0.5 / vbv_maxrate=62500 / vbv_bufsize=78125 / nal_hrd=vbr / filler=0 / ip_ratio=1.40 / aq=1:1.00
    Default                     : Yes
    Forced                      : No
    Color range                 : Limited
    Color primaries             : BT.709
    Transfer characteristics    : BT.709
    Matrix coefficients         : BT.709
    Statistics Tags Issue       : mkvmerge v29.0.0 ('Like It Or Not') 64-bit 2019-01-10 01:03:11 / mkvmerge v29.0.0 ('Like It Or Not') 64-bit 2019-01-10 01:03:11 / UTC 2019-01-08T13:56:05Z
    FromStats_BitRate           : 3498741
    FromStats_Duration          : 02:23:02.616000000
    FromStats_FrameCount        : 205777
    FromStats_StreamSize        : 3753544576

    Audio #1
    ID                          : 2
    Format                      : AC-3
    Format/Info                 : Audio Coding 3
    Commercial name             : Dolby Digital
    Codec ID                    : A_AC3
    Duration                    : 2 h 23 min
    Bit rate mode               : Constant
    Bit rate                    : 640 kb/s
    Channel(s)                  : 6 channels
    Channel layout              : L R C LFE Ls Rs
    Sampling rate               : 48.0 kHz
    Frame rate                  : 31.250 FPS (1536 SPF)
    Bit depth                   : 16 bits
    Compression mode            : Lossy
    Stream size                 : 655 MiB (14%)
    Title                       : AC3_5.1_Bluray_Esp
    Language                    : Spanish
    Service kind                : Complete Main
    Default                     : Yes
    Forced                      : Yes
    Statistics Tags Issue       : mkvmerge v29.0.0 ('Like It Or Not') 64-bit 2019-01-10 01:03:11 / mkvmerge v29.0.0 ('Like It Or Not') 64-bit 2019-01-10 01:03:11 / UTC 2019-01-08T13:56:05Z
    FromStats_BitRate           : 640000
    FromStats_Duration          : 02:23:02.816000000
    FromStats_FrameCount        : 268213
    FromStats_StreamSize        : 686625280

    Audio #2
    ID                          : 3
    Format                      : AC-3
    Format/Info                 : Audio Coding 3
    Commercial name             : Dolby Digital
    Codec ID                    : A_AC3
    Duration                    : 2 h 23 min
    Bit rate mode               : Constant
    Bit rate                    : 448 kb/s
    Channel(s)                  : 6 channels
    Channel layout              : L R C LFE Ls Rs
    Sampling rate               : 48.0 kHz
    Frame rate                  : 31.250 FPS (1536 SPF)
    Bit depth                   : 16 bits
    Compression mode            : Lossy
    Delay relative to video     : -5 ms
    Stream size                 : 458 MiB (10%)
    Title                       : AC3_5.1_bluray_Eng
    Language                    : English
    Service kind                : Complete Main
    Default                     : No
    Forced                      : No
    Statistics Tags Issue       : mkvmerge v29.0.0 ('Like It Or Not') 64-bit 2019-01-10 01:03:11 / mkvmerge v29.0.0 ('Like It Or Not') 64-bit 2019-01-10 01:03:11 / UTC 2019-01-08T13:56:05Z
    FromStats_BitRate           : 448000
    FromStats_Duration          : 02:23:03.616000000
    FromStats_FrameCount        : 268238
    FromStats_StreamSize        : 480682496

    Text #1
    ID                          : 4
    Format                      : UTF-8
    Codec ID                    : S_TEXT/UTF8
    Codec ID/Info               : UTF-8 Plain Text
    Title                       : Sub_Forzados
    Language                    : Spanish
    Default                     : Yes
    Forced                      : Yes
    Statistics Tags Issue       : mkvmerge v29.0.0 ('Like It Or Not') 64-bit 2019-01-10 01:03:11 / mkvmerge v29.0.0 ('Like It Or Not') 64-bit 2019-01-10 01:03:11 / UTC 2019-01-08T13:56:05Z
    FromStats_BitRate           : 0
    FromStats_Duration          : 01:45:45.088000000
    FromStats_FrameCount        : 12
    FromStats_StreamSize        : 281

    Text #2
    ID                          : 5
    Format                      : UTF-8
    Codec ID                    : S_TEXT/UTF8
    Codec ID/Info               : UTF-8 Plain Text
    Title                       : Sub_Esp
    Language                    : Spanish
    Default                     : No
    Forced                      : No
    Statistics Tags Issue       : mkvmerge v29.0.0 ('Like It Or Not') 64-bit 2019-01-10 01:03:11 / mkvmerge v29.0.0 ('Like It Or Not') 64-bit 2019-01-10 01:03:11 / UTC 2019-01-08T13:56:05Z
    FromStats_BitRate           : 42
    FromStats_Duration          : 02:11:57.473000000
    FromStats_FrameCount        : 1258
    FromStats_StreamSize        : 42109

    Text #3
    ID                          : 6
    Format                      : UTF-8
    Codec ID                    : S_TEXT/UTF8
    Codec ID/Info               : UTF-8 Plain Text
    Title                       : Sub_Eng
    Language                    : English
    Default                     : No
    Forced                      : No
    Statistics Tags Issue       : mkvmerge v29.0.0 ('Like It Or Not') 64-bit 2019-01-10 01:03:11 / mkvmerge v29.0.0 ('Like It Or Not') 64-bit 2019-01-10 01:03:11 / UTC 2019-01-08T13:56:05Z
    FromStats_BitRate           : 41
    FromStats_Duration          : 02:11:47.328000000
    FromStats_FrameCount        : 1292
    FromStats_StreamSize        : 41167

    Menu
    00:00:00.000                : :Chapter 1
    00:11:17.677                : :Chapter 2
    00:20:02.201                : :Chapter 3
    00:30:09.808                : :Chapter 4
    00:39:22.360                : :Chapter 5
    00:48:57.935                : :Chapter 6
    00:59:03.540                : :Chapter 7
    01:08:58.134                : :Chapter 8
    01:17:35.651                : :Chapter 9
    01:28:36.311                : :Chapter 10
    01:40:48.042                : :Chapter 11
    01:50:56.650                : :Chapter 12
    02:00:54.247                : :Chapter 13
    02:10:13.806                : :Chapter 14
    02:12:49.962                : :Chapter 15

  • Peso: 4.59 GiB

Sinopsis

Descargar El hombre de Acero (2013) 1080p Latino, Mega, Google Drive, Torrent. Un niño descubre que posee poderes extraordinarios y que no pertenece a este planeta. En su juventud, viaja para descubrir sus orígenes y las razones por las cuales ha sido enviado a la Tierra. Pero el héroe que lleva dentro tiene que emerger para que pueda salvar al mundo de la aniquilación y convertirse en el símbolo de esperanza para la humanidad.

Ficha técnica

Video trailer de la película

Enlaces de descarga

Rip de Bluray

Descargar El hombre de Acero (2013) 1080p Latino




Aportes de DPeliculasHDmega la pass es:dpeliculashdmega.org Aportes de CinemaniaHD la pass es:cinemaniahdd.com
Etiquetado en :

Películas relacionadas

  • Aquaman (2018) Full HD 1080p Latino

    2018
    Aquaman (2018) Full HD 1080p Latino

    5.0 2h 24m 2018

    Un icono durante más de 70 años, Aquaman (Jason Momoa) es el Rey de los Siete Mares. Este reacio gobernante...

    Director: James Wan

    Género: Acción

    Actores: Yahya Abdul-Mateen II

  • Bumblebee (2018) WEB-DL 1080p Castellano

    2018
    Bumblebee (2018) WEB-DL 1080p Castellano

    3.0 1h 54m 2018

    Sexta entrega de la saga 'Transformers', esta vez centrada en el "hermano pequeño" de los Autobots,...

    Director: Travis Knight

    Género: Acción

    Actores: Yianni Apostolopolous

  • Robin Hood (2018) 4K UHD HDR Latino

    2018
    Robin Hood (2018) 4K UHD HDR Latino

    0.0 1h 56m 2018

    Descargar Robin Hood (2018) 4K UHD HDR Latino, Mega, Google Drive. Cuando el joven Robin Hood (Taron...

    Director: Otto Bathurst

    Género: 4K HDR

    Actores: Yasen Atour

  • Operacion Overlord (2018) 4K UHD HDR Latino

    2018
    Operacion Overlord (2018) 4K UHD HDR Latino

    5.0 1h 50m 2018

    Descargar Operacion Overlord (2018) 4K UHD HDR Latino, Mega, Google Drive. La víspera del Día D, un...

    Director: Roxanne Cuenca

    Género: 4K HDR

    Actores: Wyatt Russell

Comentarios 0