El Hobbit: Un viaje inesperado (2012) EXTENDED Full 1080p Latino

3.974 vistas
1 estrella2 estrellas3 estrellas4 estrellas5 estrellas (2 votos, promedio: 5,00 de 5)
Cargando…

Información de El Hobbit: Un viaje inesperado (2012) EXTENDED Full 1080p Latino

Datos de la película

  • Calidad: Full 1080p
  • Audio: Español Latino AC3 5.1 BLURAY - Ingles DTS 5.1 BLURAY
  • Subtitulos: Español Latino PGS - Ingles PGS
  • Resolución: 1920X1080
  • Formato: MKV
  • Codec: H.264
  • Encoder: Dpelis
  • Mediainfo: Clic para Mostrar Datos Ver
  • Format                                   : Matroska
    Format version                           : Version 4 / Version 2
    File size                                : 9.26 GiB
    Duration                                 : 3 h 2 min
    Overall bit rate                         : 7 260 kb/s
    Movie name                               : dpeliculashdmega.org
    Encoded date                             : UTC 2017-11-16 21:54:09 / UTC 2017-11-16T07:55:03Z
    Writing application                      : mkvmerge v15.0.0 ('Duel with the Devil') 64-bit
    Writing library                          : libebml v1.3.5 + libmatroska v1.4.5 / Lavf57.7.2

    Video
    ID                                       : 1
    Format                                   : AVC
    Format/Info                              : Advanced Video Codec
    Format profile                           : High@L4.1
    Format settings                          : CABAC / 4 Ref Frames
    Format settings, CABAC                   : Yes
    Format settings, RefFrames               : 4 frames
    Codec ID                                 : V_MPEG4/ISO/AVC
    Duration                                 : 3 h 2 min
    Bit rate                                 : 5 158 kb/s
    Width                                    : 1 920 pixels
    Height                                   : 1 080 pixels
    Display aspect ratio                     : 16:9
    Frame rate mode                          : Constant
    Frame rate                               : 23.976 (24000/1001) FPS
    Color space                              : YUV
    Chroma subsampling                       : 4:2:0
    Bit depth                                : 8 bits
    Scan type                                : Progressive
    Bits/(Pixel*Frame)                       : 0.104
    Stream size                              : 6.58 GiB (71%)
    Title                                    : El Hobbit Un viaje inesperado (2012) EXTENDED Full 1080p Latino
    Writing library                          : x264 core 148 r2708 86b7198
    Encoding settings                        : cabac=1 / ref=4 / deblock=1:0:0 / analyse=0x3:0x133 / me=esa / subme=10 / psy=1 / psy_rd=1.00:0.00 / mixed_ref=1 / me_range=24 / chroma_me=1 / trellis=2 / 8x8dct=1 / cqm=0 / deadzone=21,11 / fast_pskip=1 / chroma_qp_offset=-2 / threads=34 / lookahead_threads=5 / sliced_threads=0 / nr=0 / decimate=1 / interlaced=0 / bluray_compat=0 / constrained_intra=0 / bframes=8 / b_pyramid=2 / b_adapt=2 / b_bias=0 / direct=3 / weightb=1 / open_gop=0 / weightp=2 / keyint=240 / keyint_min=24 / scenecut=40 / intra_refresh=0 / rc_lookahead=60 / rc=crf / mbtree=1 / crf=20.0 / qcomp=0.60 / qpmin=0 / qpmax=69 / qpstep=4 / vbv_maxrate=62500 / vbv_bufsize=78125 / crf_max=0.0 / nal_hrd=none / filler=0 / ip_ratio=1.40 / aq=1:1.00
    Language                                 : English
    Default                                  : Yes
    Forced                                   : No
    Color range                              : Limited
    Color primaries                          : BT.709
    Transfer characteristics                 : BT.709
    Matrix coefficients                      : BT.709
    Statistics Tags Issue                    : mkvmerge v15.0.0 ('Duel with the Devil') 64-bit 2017-11-16 21:54:09 / mkvmerge v15.0.0 ('Duel with the Devil') 64-bit 2017-11-16 21:54:09 / UTC 2017-11-16T07:55:03Z
    FromStats_BitRate                        : 5276609
    FromStats_Duration                       : 03:02:30.398000000
    FromStats_FrameCount                     : 262547
    FromStats_StreamSize                     : 7222622343

    Audio #1
    ID                                       : 2
    Format                                   : AC-3
    Format/Info                              : Audio Coding 3
    Format settings, Endianness              : Big
    Codec ID                                 : A_AC3
    Duration                                 : 3 h 2 min
    Bit rate mode                            : Constant
    Bit rate                                 : 448 kb/s
    Channel(s)                               : 6 channels
    Channel positions                        : Front: L C R, Side: L R, LFE
    Sampling rate                            : 48.0 kHz
    Frame rate                               : 31.250 FPS (1536 SPF)
    Bit depth                                : 16 bits
    Compression mode                         : Lossy
    Stream size                              : 585 MiB (6%)
    Title                                    : Latino-AC3
    Language                                 : Spanish
    Service kind                             : Complete Main
    Default                                  : Yes
    Forced                                   : No
    Statistics Tags Issue                    : mkvmerge v15.0.0 ('Duel with the Devil') 64-bit 2017-11-16 21:54:09 / mkvmerge v15.0.0 ('Duel with the Devil') 64-bit 2017-11-16 21:54:09 / UTC 2017-11-16T07:55:03Z
    FromStats_BitRate                        : 448000
    FromStats_Duration                       : 03:02:28.736000000
    FromStats_FrameCount                     : 342148
    FromStats_StreamSize                     : 613129216

    Audio #2
    ID                                       : 3
    Format                                   : DTS
    Format/Info                              : Digital Theater Systems
    Mode                                     : 16
    Format settings, Endianness              : Big
    Codec ID                                 : A_DTS
    Duration                                 : 3 h 2 min
    Bit rate mode                            : Constant
    Bit rate                                 : 1 509 kb/s
    Channel(s)                               : 6 channels
    Channel positions                        : Front: L C R, Side: L R, LFE
    Sampling rate                            : 48.0 kHz
    Frame rate                               : 93.750 FPS (512 SPF)
    Bit depth                                : 24 bits
    Compression mode                         : Lossy
    Stream size                              : 1.92 GiB (21%)
    Title                                    : Ingles-DTS
    Language                                 : English
    Default                                  : No
    Forced                                   : No
    Statistics Tags Issue                    : mkvmerge v15.0.0 ('Duel with the Devil') 64-bit 2017-11-16 21:54:09 / mkvmerge v15.0.0 ('Duel with the Devil') 64-bit 2017-11-16 21:54:09 / UTC 2017-11-16T07:55:03Z
    FromStats_BitRate                        : 1509000
    FromStats_Duration                       : 03:02:31.360000000
    FromStats_FrameCount                     : 1026690
    FromStats_StreamSize                     : 2065700280

    Text #1
    ID                                       : 4
    Format                                   : UTF-8
    Codec ID                                 : S_TEXT/UTF8
    Codec ID/Info                            : UTF-8 Plain Text
    Title                                    : SRT-Forzados
    Language                                 : Spanish
    Default                                  : Yes
    Forced                                   : No
    Statistics Tags Issue                    : mkvmerge v15.0.0 ('Duel with the Devil') 64-bit 2017-11-16 21:54:09 / mkvmerge v15.0.0 ('Duel with the Devil') 64-bit 2017-11-16 21:54:09 / UTC 2017-11-16T07:55:03Z
    FromStats_BitRate                        : 5
    FromStats_Duration                       : 03:01:46.484000000
    FromStats_FrameCount                     : 233
    FromStats_StreamSize                     : 7891

    Text #2
    ID                                       : 5
    Format                                   : PGS
    Muxing mode                              : zlib
    Codec ID                                 : S_HDMV/PGS
    Codec ID/Info                            : Picture based subtitle format used on BDs/HD-DVDs
    Title                                    : PGS
    Language                                 : English
    Default                                  : No
    Forced                                   : No
    Statistics Tags Issue                    : mkvmerge v15.0.0 ('Duel with the Devil') 64-bit 2017-11-16 21:54:09 / mkvmerge v15.0.0 ('Duel with the Devil') 64-bit 2017-11-16 21:54:09 / UTC 2017-11-16T07:55:03Z
    FromStats_BitRate                        : 26930
    FromStats_Duration                       : 03:01:22.872000000
    FromStats_FrameCount                     : 4952
    FromStats_StreamSize                     : 36634953

    Text #3
    ID                                       : 6
    Format                                   : PGS
    Muxing mode                              : zlib
    Codec ID                                 : S_HDMV/PGS
    Codec ID/Info                            : Picture based subtitle format used on BDs/HD-DVDs
    Title                                    : PGS
    Language                                 : Spanish
    Default                                  : No
    Forced                                   : No
    Statistics Tags Issue                    : mkvmerge v15.0.0 ('Duel with the Devil') 64-bit 2017-11-16 21:54:09 / mkvmerge v15.0.0 ('Duel with the Devil') 64-bit 2017-11-16 21:54:09 / UTC 2017-11-16T07:55:03Z
    FromStats_BitRate                        : 24336
    FromStats_Duration                       : 03:01:32.840000000
    FromStats_FrameCount                     : 4406
    FromStats_StreamSize                     : 33137319

    Menu
    00:00:00.000                             : :Chapter 1
    00:10:11.903                             : :Chapter 2
    00:14:08.723                             : :Chapter 3
    00:17:27.255                             : :Chapter 4
    00:18:44.582                             : :Chapter 5
    00:23:16.562                             : :Chapter 6
    00:27:59.511                             : :Chapter 7
    00:36:04.913                             : :Chapter 8
    00:41:17.308                             : :Chapter 9
    00:46:30.830                             : :Chapter 10
    00:53:04.181                             : :Chapter 11
    00:58:07.651                             : :Chapter 12
    00:59:55.050                             : :Chapter 13
    01:10:42.155                             : :Chapter 14
    01:15:01.539                             : :Chapter 15
    01:18:52.603                             : :Chapter 16
    01:24:56.675                             : :Chapter 17
    01:30:34.429                             : :Chapter 18
    01:34:10.520                             : :Chapter 19
    01:37:24.464                             : :Chapter 20
    01:39:03.521                             : :Chapter 21
    01:41:40.845                             : :Chapter 22
    01:50:22.533                             : :Chapter 23
    01:52:59.773                             : :Chapter 24
    01:59:06.306                             : :Chapter 25
    02:03:57.555                             : :Chapter 26
    02:09:51.534                             : :Chapter 27
    02:23:21.426                             : :Chapter 28
    02:25:18.627                             : :Chapter 29
    02:26:31.116                             : :Chapter 30
    02:30:52.669                             : :Chapter 31
    02:33:00.463                             : :Chapter 32
    02:35:52.635                             : :Chapter 33
    02:46:51.210                             : :Chapter 34
    02:52:21.373                             : :Chapter 35

  • Peso: 9.26 GiB

Sinopsis

Precuela de la trilogía “El Señor de los Anillos”, obra de J.R.R. Tolkien. En compañía del mago Gandalf y de trece enanos, el hobbit Bilbo Bolsón emprende un viaje a través del país de los elfos y los bosques de los trolls, desde las mazmorras de los orcos hasta la Montaña Solitaria, donde el dragón Smaug esconde el tesoro de los Enanos. Finalmente, en las profundidades de la Tierra, encuentra el Anillo Único, hipnótico objeto que será posteriormente causa de tantas sangrientas batallas en la Tierra Media.

 

Nota: Audio Latino Editado con partes en castellano para la Versión EXTENDED

Creditos: Thor_Ragnarok93 Por editar el audio…

 

Ficha técnica

Video trailer de la película

Enlaces de descarga

Rip de Bluray

Descargar El Hobbit: Un viaje inesperado (2012) EXTENDED Full 1080p Latino




Aportes de DPeliculasHDmega la pass es:dpeliculashdmega.org Aportes de CinemaniaHD la pass es:cinemaniahdd.com

Películas relacionadas

  • El Justiciero 2 (2018) Full 1080p Latino

    2018
    El Justiciero 2 (2018) Full 1080p Latino

    5.0 2h 0m 2018

    Descargar El Justiciero 2 (2018) Full 1080p Latino, Mega, Google Drive. Robert McCall (Denzel Washington)...

    Director: Donald Sparks

    Género: Acción

    Actores: Wesley Pereira

  • El Justiciero 2 (2018) 1080p Latino

    2018
    El Justiciero 2 (2018) 1080p Latino

    2.5 2h 0m 2018

    Descargar El Justiciero 2 (2018) 1080p Latino, Mega, Google Drive. Robert McCall (Denzel Washington)...

    Director: Donald Sparks

    Género: Acción

    Actores: Wesley Pereira

Comentarios 9
  • Victor - 28 noviembre, 2017

    Muchas gracias por el aporte, ya descargué y vi la trilogía. La verdad un trabajo de excelencia. Estaría bueno que pudieran hacer lo mismo con la trilogía de El Señor de los Anillos.
    Un saludo, y sigan así.

    • Dpelis2 - 28 noviembre, 2017

      Muchas Gracias y las del señor de los anillos ya están publicadas Saludos

  • AjSux - 22 noviembre, 2017

    Contiene los subtitulos forzados???

    • Dpelis2 - 22 noviembre, 2017

      Todas traen los Subtitulos forzados.

  • angel - 17 noviembre, 2017

    muchas gracias por la triologia son los mejores.

  • Ale - 17 noviembre, 2017

    Que genio! Muchísimas gracias amigo! Las esperaba ansioso, gracias por semejante calidad y tanto esfuerzo. Saludos

    • Dpelis2 pelis2 - 17 noviembre, 2017

      De nada amigo. Saludos 😉

  • leonidas2016 - 17 noviembre, 2017

    Exelente aporte , y exendidas, el laburo que hacen es maravilloso, un lujo poder disfrutar estas pelis en esta calidad , bajando la trilogia, muchas gracias

    • Dpelis2 pelis2 - 17 noviembre, 2017

      De nada amigo. Como siempre lo mejor para Ustedes, Saludos