×

¿Problemas para descargar con Mozilla, EDGE? Deshabilita la opción "Abrir vinculos en una pestaña nueva" tal como lo muestra ésta imagen.

El hijo del diablo (2000) [AMZN] WEB-DL 1080p Latino – CMHDD

295 vistas

Información de El hijo del diablo (2000) [AMZN] WEB-DL 1080p Latino – CMHDD

Datos de la película

  • Calidad: WEBDL
  • Audio: Se especifica abajo de la Sinopsis
  • Subtitulos: Español Latino SRT- FORZADOS SRT
  • Resolución: 1920x1040p
  • Formato: MKV
  • Codec: H.264
  • Encoder: Dracarys
  • Mediainfo: Clic para Mostrar Datos Ver
  • Format                      : Matroska
    Format version              : Version 4
    File size                   : 7.17 GiB
    Duration                    : 1 h 30 min
    Overall bit rate            : 11.4 Mb/s
    Movie name                  : El hijo del diablo (2000) [AMZN] WEB-DL 1080p Latino - CMHDD
    Encoded date                : UTC 2021-02-24 00:34:43
    Writing application         : mkvmerge v51.0.0 ('I Wish') 64-bit
    Writing library             : libebml v1.4.0 + libmatroska v1.6.2

    Video
    ID                          : 1
    Format                      : AVC
    Format/Info                 : Advanced Video Codec
    Format profile              : High@L4
    Format settings             : CABAC / 4 Ref Frames
    Format settings, CABAC      : Yes
    Format settings, Reference  : 4 frames
    Codec ID                    : V_MPEG4/ISO/AVC
    Duration                    : 1 h 30 min
    Bit rate mode               : Constant
    Bit rate                    : 10.3 Mb/s
    Nominal bit rate            : 15.0 Mb/s
    Width                       : 1 920 pixels
    Height                      : 1 040 pixels
    Display aspect ratio        : 1.85:1
    Frame rate mode             : Constant
    Frame rate                  : 23.976 (24000/1001) FPS
    Color space                 : YUV
    Chroma subsampling          : 4:2:0
    Bit depth                   : 8 bits
    Scan type                   : Progressive
    Bits/(Pixel*Frame)          : 0.215
    Stream size                 : 6.48 GiB (90%)
    Language                    : English
    Default                     : Yes
    Forced                      : No
    Color range                 : Limited
    Color primaries             : BT.709
    Transfer characteristics    : BT.709
    Matrix coefficients         : BT.709

    Audio #1
    ID                          : 2
    Format                      : E-AC-3
    Format/Info                 : Enhanced AC-3
    Commercial name             : Dolby Digital Plus
    Codec ID                    : A_EAC3
    Duration                    : 1 h 30 min
    Bit rate mode               : Constant
    Bit rate                    : 224 kb/s
    Channel(s)                  : 2 channels
    Channel layout              : L R
    Sampling rate               : 48.0 kHz
    Frame rate                  : 31.250 FPS (1536 SPF)
    Compression mode            : Lossy
    Stream size                 : 145 MiB (2%)
    Language                    : Spanish
    Service kind                : Complete Main
    Default                     : Yes
    Forced                      : No

    Audio #2
    ID                          : 3
    Format                      : AC-3
    Format/Info                 : Audio Coding 3
    Commercial name             : Dolby Digital
    Codec ID                    : A_AC3
    Duration                    : 1 h 30 min
    Bit rate mode               : Constant
    Bit rate                    : 224 kb/s
    Channel(s)                  : 2 channels
    Channel layout              : L R
    Sampling rate               : 48.0 kHz
    Frame rate                  : 31.250 FPS (1536 SPF)
    Compression mode            : Lossy
    Stream size                 : 145 MiB (2%)
    Language                    : Spanish
    Service kind                : Complete Main
    Default                     : No
    Forced                      : No

    Audio #3
    ID                          : 4
    Format                      : E-AC-3
    Format/Info                 : Enhanced AC-3
    Commercial name             : Dolby Digital Plus
    Codec ID                    : A_EAC3
    Duration                    : 1 h 30 min
    Bit rate mode               : Constant
    Bit rate                    : 640 kb/s
    Channel(s)                  : 6 channels
    Channel layout              : L R C LFE Ls Rs
    Sampling rate               : 48.0 kHz
    Frame rate                  : 31.250 FPS (1536 SPF)
    Compression mode            : Lossy
    Stream size                 : 413 MiB (6%)
    Language                    : English
    Service kind                : Complete Main
    Default                     : No
    Forced                      : No

    Text #1
    ID                          : 5
    Format                      : UTF-8
    Codec ID                    : S_TEXT/UTF8
    Codec ID/Info               : UTF-8 Plain Text
    Duration                    : 1 h 21 min
    Bit rate                    : 67 b/s
    Count of elements           : 1124
    Stream size                 : 40.2 KiB (0%)
    Language                    : Spanish
    Default                     : No
    Forced                      : No

    Text #2
    ID                          : 6
    Format                      : UTF-8
    Codec ID                    : S_TEXT/UTF8
    Codec ID/Info               : UTF-8 Plain Text
    Duration                    : 37 min 3 s
    Bit rate                    : 4 b/s
    Count of elements           : 33
    Stream size                 : 1.31 KiB (0%)
    Language                    : Spanish
    Default                     : Yes
    Forced                      : No

    Menu #1
    00:00:00.000                : :Title Sequence
    00:00:36.000                : :Scene 2
    00:13:40.000                : :Scene 3
    00:20:39.000                : :Scene 4
    00:30:35.000                : :Scene 5
    00:41:15.000                : :Scene 6
    00:49:13.000                : :Scene 7
    01:01:16.000                : :Scene 8
    01:10:00.000                : :Scene 9
    01:20:29.000                : :Scene 10
    01:22:34.000                : :End Credits

    Menu #2
    00:00:00.000                : en:01. Main Titles/Showtime
    00:03:39.052                : en:02. Satan And Sons
    00:09:10.341                : en:03. Escape From Hell
    00:14:38.377                : en:04. The Human World
    00:20:37.861                : en:05. Let The Sin Begin
    00:23:06.426                : en:06. Get In The Flask!
    00:25:59.933                : en:07. Valerie
    00:33:17.495                : en:08. Relase The Evil
    00:41:15.181                : en:09. Party Cake
    00:45:15.379                : en:10. Nicky's Apology
    00:49:13.408                : en:11. The Monster
    00:53:49.392                : en:12. Ratted Out
    00:59:47.792                : en:13. Run Beefy.Run!
    01:01:15.630                : en:14. Where's Nicky?
    01:06:49.088                : en:15. Hell On Earth
    01:10:00.487                : en:16. Showdown In Central Park
    01:18:35.043                : en:17. To Hell And Back
    01:22:36.868                : en:18. End Credits

  • Peso: 7.17 GiB

Sinopsis

Tras diez mil años de duro trabajo, Satanás está deseando retirarse, pero ninguno de sus hijos es lo bastante malvado para sustituirlo. Los mayores, Cassius y Adrian, cansados de la tiranía de su padre, deciden marcharse a Nueva York para instaurarTras diez mil años de duro trabajo, Satanás está deseando retirarse, pero ninguno de sus hijos es lo bastante malvado para sustituirlo. Los mayores, Cassius y Adrian, cansados de la tiranía de su padre, deciden marcharse a Nueva York para instaurar su propio reino infernal. Nicky, el más pequeño y tonto, conseguirá evitar la sucesión encarnándose en un hombre. su propio reino infernal. Nicky, el más pequeño y tonto, conseguirá evitar la sucesión encarnándose en un hombre.

 

Latino: E-AC3 + AC3 2.0 AMAZON  –  Ingles: E-AC3 5.1 AMAZON

Ficha técnica

Video trailer de la película

Enlaces de descarga

Rip de Bluray

Descargar El hijo del diablo (2000) [AMZN] WEB-DL 1080p Latino – CMHDD




Aportes de DPeliculasHDmega la pass es:dpeliculashdmega.org Aportes de CinemaniaHD la pass es:cinemaniahdd.com
Guardado en : Comedia , Fantasía , Romance , Terror

Películas relacionadas

descargar El hijo del diablo (2000) [AMZN] WEB-DL 1080p Latino – CMHDD WEBDL 1080p gratis, El hijo del diablo (2000) [AMZN] WEB-DL 1080p Latino – CMHDD WEBDL mega 1 link, El hijo del diablo (2000) [AMZN] WEB-DL 1080p Latino – CMHDD WEBDL pelicula completa, descargar El hijo del diablo (2000) [AMZN] WEB-DL 1080p Latino – CMHDD WEBDL gratis en mega.

El hijo del diablo (2000) [AMZN] WEB-DL 1080p Latino – CMHDD pelicula full hd, El hijo del diablo (2000) [AMZN] WEB-DL 1080p Latino – CMHDD mega latino, El hijo del diablo (2000) [AMZN] WEB-DL 1080p Latino – CMHDD 4k latino, El hijo del diablo (2000) [AMZN] WEB-DL 1080p Latino – CMHDD pelicula completa, El hijo del diablo (2000) [AMZN] WEB-DL 1080p Latino – CMHDD descargar gratis, descargar El hijo del diablo (2000) [AMZN] WEB-DL 1080p Latino – CMHDD pelicula latino, El hijo del diablo (2000) [AMZN] WEB-DL 1080p Latino – CMHDD 1 link mega, El hijo del diablo (2000) [AMZN] WEB-DL 1080p Latino – CMHDD 1 link google drive, El hijo del diablo (2000) [AMZN] WEB-DL 1080p Latino – CMHDD hd 1080p latino.