×

¿Problemas para descargar con Mozilla, EDGE? Deshabilita la opción "Abrir vinculos en una pestaña nueva" tal como lo muestra ésta imagen.

El Grinch (2000) 4K HDR REMUX Latino – CMHDD

349 vistas

Información de El Grinch (2000) 4K HDR REMUX Latino – CMHDD

Datos de la película

  • Calidad: 4K HDR
  • Audio: Español Latino DTS 5.1 BLURAY - Ingles DTS-HD Master 7.1 BLURAY
  • Subtitulos: Español Latino PGS
  • Resolución: 3840x2160p
  • Formato: MKV
  • Codec: H.264
  • Encoder: Dracarys
  • Mediainfo: Clic para Mostrar Datos Ver
  • Format                      : Matroska
    Format version              : Version 4
    File size                   : 49.8 GiB
    Duration                    : 1 h 45 min
    Overall bit rate mode       : Variable
    Overall bit rate            : 67.8 Mb/s
    Movie name                  : El Grinch (2000) 4K HDR REMUX Latino - CMHDD
    Encoded date                : UTC 2020-12-20 23:11:39
    Writing application         : mkvmerge v51.0.0 ('I Wish') 64-bit
    Writing library             : libebml v1.4.0 + libmatroska v1.6.2

    Video
    ID                          : 1
    Format                      : HEVC
    Format/Info                 : High Efficiency Video Coding
    Format profile              : Main 10@L5.1@High
    HDR format                  : SMPTE ST 2086, HDR10 compatible
    Codec ID                    : V_MPEGH/ISO/HEVC
    Duration                    : 1 h 44 min
    Bit rate                    : 60.5 Mb/s
    Width                       : 3 840 pixels
    Height                      : 2 160 pixels
    Display aspect ratio        : 16:9
    Frame rate mode             : Constant
    Frame rate                  : 23.976 (24000/1001) FPS
    Color space                 : YUV
    Chroma subsampling          : 4:2:0 (Type 2)
    Bit depth                   : 10 bits
    Bits/(Pixel*Frame)          : 0.304
    Stream size                 : 44.3 GiB (89%)
    Writing library             : ATEME Titan File 3.8.3 (4.8.3.0)        
    Default                     : Yes
    Forced                      : No
    Color range                 : Limited
    Color primaries             : BT.2020
    Transfer characteristics    : PQ
    Matrix coefficients         : BT.2020 non-constant
    Mastering display color pri : Display P3
    Mastering display luminance : min: 0.0050 cd/m2, max: 1000 cd/m2
    Maximum Content Light Level : 1000 cd/m2
    Maximum Frame-Average Light : 249 cd/m2

    Audio #1
    ID                          : 2
    Format                      : DTS
    Format/Info                 : Digital Theater Systems
    Codec ID                    : A_DTS
    Duration                    : 1 h 45 min
    Bit rate mode               : Constant
    Bit rate                    : 768 kb/s
    Channel(s)                  : 6 channels
    Channel layout              : C L R Ls Rs LFE
    Sampling rate               : 48.0 kHz
    Frame rate                  : 93.750 FPS (512 SPF)
    Bit depth                   : 24 bits
    Compression mode            : Lossy
    Stream size                 : 577 MiB (1%)
    Language                    : Spanish
    Default                     : Yes
    Forced                      : No

    Audio #2
    ID                          : 3
    Format                      : DTS XLL X
    Format/Info                 : Digital Theater Systems
    Commercial name             : DTS-HD Master Audio
    Codec ID                    : A_DTS
    Duration                    : 1 h 44 min
    Bit rate mode               : Variable
    Bit rate                    : 6 642 kb/s
    Channel(s)                  : 8 channels
    Channel(s)_Original         : Object Based
    ChannelLayout_Original      : Object Based
    Sampling rate               : 48.0 kHz
    Frame rate                  : 93.750 FPS (512 SPF)
    Bit depth                   : 24 bits
    Stream size                 : 4.87 GiB (10%)
    Language                    : English
    Default                     : No
    Forced                      : No

    Text #1
    ID                          : 4
    Format                      : PGS
    Muxing mode                 : zlib
    Codec ID                    : S_HDMV/PGS
    Codec ID/Info               : Picture based subtitle format used on BDs/HD-DVDs
    Duration                    : 1 h 36 min
    Bit rate                    : 30.9 kb/s
    Count of elements           : 2218
    Stream size                 : 21.4 MiB (0%)
    Language                    : Spanish
    Default                     : No
    Forced                      : No

    Text #2
    ID                          : 5
    Format                      : UTF-8
    Codec ID                    : S_TEXT/UTF8
    Codec ID/Info               : UTF-8 Plain Text
    Duration                    : 1 h 36 min
    Bit rate                    : 48 b/s
    Count of elements           : 1109
    Stream size                 : 34.7 KiB (0%)
    Language                    : Spanish
    Default                     : No
    Forced                      : No

    Menu
    00:00:00.000                : en:  1. A Whoville Christmas
    00:03:38.483                : en:  2. Meet the Grinch
    00:10:26.891                : en:  3. Cindy Lou's Savior
    00:17:50.918                : en:  4. Christmas, Why Can't I Find You?
    00:19:22.051                : en:  5. No Place Like Home
    00:23:36.598                : en:  6. The Grinch's Story
    00:33:29.189                : en:  7. Cindy Lou's Candidate
    00:36:54.895                : en:  8. The Invitation
    00:44:05.534                : en:  9. Second Thoughts
    00:47:12.888                : en:10. The Holiday Cheermeister
    00:52:58.315                : en:11. The Grinch's Revenge
    00:59:39.217                : en:12. A Wonderful, Awful Idea
    01:02:39.771                : en:13. You're a Mean One, Mr. Grinch
    01:07:04.453                : en:14. Grinchy Claus
    01:14:36.737                : en:15. To Take Every Present
    01:18:12.454                : en:16. Christmas Destroyed
    01:22:01.141                : en:17. A Change of Heart
    01:27:18.164                : en:18. To Save Cindy Lou
    01:30:21.722                : en:19. Merry Christmas, Mr. Grinch
    01:37:52.548                : en:20. End Titles

  • Peso: 49.8 GiB

Sinopsis

Cada año, en Navidad, los lugareños perturban su pacífica soledad con celebraciones cada vez más desmesuradas, luminosas y ruidosas. Cuando los Quién declaran que ese año van a preparar una Navidad el triple de grande, el Grinch se da cuenta de que solo hay un modo de recuperar algo de paz y silencio: robar la Navidad. Para ello, decide hacerse pasar por Santa Claus en Nochebuena, haciéndose con un reno muy peculiar para tirar de su trineo. Mientras tanto, en Villa Quién, una dulce niña llamada Cindy-Lou, desbordante de espíritu navideño, planea con sus amigos atrapar a Papá Noel durante su visita en Nochebuena para darle las gracias por ayudar a su trabajadora madre. Sin embargo, a medida que se acerca la noche mágica, sus buenas intenciones amenazan con chocar con las del Grinch, mucho más perversas.

Ficha técnica

Video trailer de la película

Enlaces de descarga

Rip de Bluray

Descargar El Grinch (2000) 4K HDR REMUX Latino – CMHDD


Aportes de DPeliculasHDmega la pass es:dpeliculashdmega.org Aportes de CinemaniaHD la pass es:cinemaniahdd.com
Guardado en : Comedia , Familia , Fantasía

Películas relacionadas

  • Shotgun Wedding (2022) AMZN WEB-DL 1080p Latino

    Shotgun Wedding (2022) AMZN WEB-DL 1080p Latino

    2022
    Shotgun Wedding (2022) AMZN WEB-DL 1080p Latino

    1h 41m 2022

    Darcy y Tom reúnen a sus familias para la boda de destino definitiva, pero cuando toman como rehenes...

    Director: Jason Moore

    Género: Acción

    Actores: Steve Coulter

  • M3GAN (2023) AMZN WEB-DL 4K UHD HDR Latino

    M3GAN (2023) AMZN WEB-DL 4K UHD HDR Latino

    2022
    M3GAN (2023) AMZN WEB-DL 4K UHD HDR Latino

    1h 42m 2022

    Descargar M3GAN (2023) AMZN WEB-DL 4K UHD HDR Latino. Cuando Gemma se convierte en la cuidadora de su...

    Director: Stephen W. Moore

    Género: 4K HDR

    Actores: Violet McGraw

  • M3GAN (2022) MA WEB-DL 1080p Latino

    M3GAN (2022) MA WEB-DL 1080p Latino

    2022
    M3GAN (2022) MA WEB-DL 1080p Latino

    1h 42m 2022

    Descargar M3GAN (2022) MA WEB-DL 1080p Latino. Cuando Gemma se convierte en la cuidadora de su sobrina...

    Director: Stephen W. Moore

    Género: Ciencia ficción

    Actores: Violet McGraw

  • Noche sin paz (2022) PLACEBO Full HD 1080p Latino

    Noche sin paz (2022) PLACEBO Full HD 1080p Latino

    2022
    Noche sin paz (2022) PLACEBO Full HD 1080p Latino

    1h 41m 2022

    Descargar Noche sin paz (2022) PLACEBO Full HD 1080p Latino. Cuando un equipo de mercenarios irrumpe...

    Director: Tyshana Hobson

    Género: Acción

    Actores: Yoon Cha-Lee

  • Noche sin paz (2022) HD 1080p Latino

    Noche sin paz (2022) HD 1080p Latino

    2022
    Noche sin paz (2022) HD 1080p Latino

    1h 41m 2022

    Descargar Noche sin paz (2022) HD 1080p Latino. Cuando un equipo de mercenarios irrumpe en Nochebuena...

    Director: Tyshana Hobson

    Género: Acción

    Actores: Yoon Cha-Lee

descargar El Grinch (2000) 4K HDR REMUX Latino – CMHDD 4K HDR 1080p gratis, El Grinch (2000) 4K HDR REMUX Latino – CMHDD 4K HDR mega 1 link, El Grinch (2000) 4K HDR REMUX Latino – CMHDD 4K HDR pelicula completa, descargar El Grinch (2000) 4K HDR REMUX Latino – CMHDD 4K HDR gratis en mega.

El Grinch (2000) 4K HDR REMUX Latino – CMHDD pelicula full hd, El Grinch (2000) 4K HDR REMUX Latino – CMHDD mega latino, El Grinch (2000) 4K HDR REMUX Latino – CMHDD 4k latino, El Grinch (2000) 4K HDR REMUX Latino – CMHDD pelicula completa, El Grinch (2000) 4K HDR REMUX Latino – CMHDD descargar gratis, descargar El Grinch (2000) 4K HDR REMUX Latino – CMHDD pelicula latino, El Grinch (2000) 4K HDR REMUX Latino – CMHDD 1 link mega, El Grinch (2000) 4K HDR REMUX Latino – CMHDD 1 link google drive, El Grinch (2000) 4K HDR REMUX Latino – CMHDD hd 1080p latino.
Comentarios 0