El gran huracán categoría 5 (2018) Full 1080p Latino

2.070 vistas
1 estrella2 estrellas3 estrellas4 estrellas5 estrellas (1 votos, promedio: 5,00 de 5)
Cargando…

Información de El gran huracán categoría 5 (2018) Full 1080p Latino

Datos de la película

  • Calidad: Full 1080p
  • Audio: Español Latino AC3 2.0 DVD - Ingles AC3 5.1 BLURAY
  • Subtitulos: Español Latino PGS - Ingles PGS
  • Resolución: 1920x1080p
  • Formato: MKV
  • Codec: H.264
  • Encoder: Dracarys
  • Mediainfo: Clic para Mostrar Datos Ver
  • Format                                   : Matroska
    Format version                           : Version 4 / Version 2
    File size                                : 3.38 GiB
    Duration                                 : 1 h 43 min
    Overall bit rate                         : 4 689 kb/s
    Movie name                               : CinemaniaHDD.net
    Encoded date                             : UTC 2018-07-12 21:50:51 / UTC 2018-07-01T11:55:26Z
    Writing application                      : mkvmerge v15.0.0 ('Duel with the Devil') 64-bit
    Writing library                          : libebml v1.3.5 + libmatroska v1.4.5 / Lavf57.7.2

    Video
    ID                                       : 1
    Format                                   : AVC
    Format/Info                              : Advanced Video Codec
    Format profile                           : High@L4.1
    Format settings                          : CABAC / 4 Ref Frames
    Format settings, CABAC                   : Yes
    Format settings, RefFrames               : 4 frames
    Codec ID                                 : V_MPEG4/ISO/AVC
    Duration                                 : 1 h 43 min
    Bit rate                                 : 3 763 kb/s
    Width                                    : 1 920 pixels
    Height                                   : 1 080 pixels
    Display aspect ratio                     : 16:9
    Frame rate mode                          : Constant
    Frame rate                               : 23.976 (24000/1001) FPS
    Color space                              : YUV
    Chroma subsampling                       : 4:2:0
    Bit depth                                : 8 bits
    Scan type                                : Progressive
    Bits/(Pixel*Frame)                       : 0.076
    Stream size                              : 2.71 GiB (80%)
    Title                                    : El gran huracán categoría 5 (2018) Full 1080p Latino
    Writing library                          : x264 core 155 r2893 b00bcaf
    Encoding settings                        : cabac=1 / ref=4 / deblock=1:0:0 / analyse=0x3:0x133 / me=esa / subme=10 / psy=1 / psy_rd=1.00:0.00 / mixed_ref=1 / me_range=24 / chroma_me=1 / trellis=2 / 8x8dct=1 / cqm=0 / deadzone=21,11 / fast_pskip=1 / chroma_qp_offset=-2 / threads=24 / lookahead_threads=4 / sliced_threads=0 / nr=0 / decimate=1 / interlaced=0 / bluray_compat=0 / constrained_intra=0 / bframes=8 / b_pyramid=2 / b_adapt=2 / b_bias=0 / direct=3 / weightb=1 / open_gop=0 / weightp=2 / keyint=240 / keyint_min=24 / scenecut=40 / intra_refresh=0 / rc_lookahead=60 / rc=crf / mbtree=1 / crf=20.0 / qcomp=0.60 / qpmin=0 / qpmax=69 / qpstep=4 / vbv_maxrate=62500 / vbv_bufsize=78125 / crf_max=0.0 / nal_hrd=none / filler=0 / ip_ratio=1.40 / aq=1:1.00
    Language                                 : English
    Default                                  : Yes
    Forced                                   : No
    Color range                              : Limited
    Color primaries                          : BT.709
    Transfer characteristics                 : BT.709
    Matrix coefficients                      : BT.709
    Statistics Tags Issue                    : mkvmerge v15.0.0 ('Duel with the Devil') 64-bit 2018-07-12 21:50:51 / mkvmerge v15.0.0 ('Duel with the Devil') 64-bit 2018-07-12 21:50:51 / UTC 2018-07-01T11:55:26Z
    FromStats_BitRate                        : 3820792
    FromStats_Duration                       : 01:43:05.430000000
    FromStats_FrameCount                     : 148302
    FromStats_StreamSize                     : 2954155373

    Audio #1
    ID                                       : 2
    Format                                   : AC-3
    Format/Info                              : Audio Coding 3
    Format settings, Endianness              : Big
    Codec ID                                 : A_AC3
    Duration                                 : 1 h 43 min
    Bit rate mode                            : Constant
    Bit rate                                 : 192 kb/s
    Channel(s)                               : 2 channels
    Channel positions                        : Front: L R
    Sampling rate                            : 48.0 kHz
    Frame rate                               : 31.250 FPS (1536 SPF)
    Bit depth                                : 16 bits
    Compression mode                         : Lossy
    Stream size                              : 142 MiB (4%)
    Language                                 : Spanish
    Service kind                             : Complete Main
    Default                                  : Yes
    Forced                                   : No
    Statistics Tags Issue                    : mkvmerge v15.0.0 ('Duel with the Devil') 64-bit 2018-07-12 21:50:51 / mkvmerge v15.0.0 ('Duel with the Devil') 64-bit 2018-07-12 21:50:51 / UTC 2018-07-01T11:55:26Z
    FromStats_BitRate                        : 192000
    FromStats_Duration                       : 01:43:05.184000000
    FromStats_FrameCount                     : 193287
    FromStats_StreamSize                     : 148444416

    Audio #2
    ID                                       : 3
    Format                                   : AC-3
    Format/Info                              : Audio Coding 3
    Format settings, Endianness              : Big
    Codec ID                                 : A_AC3
    Duration                                 : 1 h 43 min
    Bit rate mode                            : Constant
    Bit rate                                 : 640 kb/s
    Channel(s)                               : 6 channels
    Channel positions                        : Front: L C R, Side: L R, LFE
    Sampling rate                            : 48.0 kHz
    Frame rate                               : 31.250 FPS (1536 SPF)
    Bit depth                                : 16 bits
    Compression mode                         : Lossy
    Delay relative to video                  : 64 ms
    Stream size                              : 472 MiB (14%)
    Language                                 : English
    Service kind                             : Complete Main
    Default                                  : No
    Forced                                   : No
    Statistics Tags Issue                    : mkvmerge v15.0.0 ('Duel with the Devil') 64-bit 2018-07-12 21:50:51 / mkvmerge v15.0.0 ('Duel with the Devil') 64-bit 2018-07-12 21:50:51 / UTC 2018-07-01T11:55:26Z
    FromStats_BitRate                        : 640000
    FromStats_Duration                       : 01:43:05.440000000
    FromStats_FrameCount                     : 193295
    FromStats_StreamSize                     : 494835200

    Text #1
    ID                                       : 4
    Format                                   : PGS
    Muxing mode                              : zlib
    Codec ID                                 : S_HDMV/PGS
    Codec ID/Info                            : Picture based subtitle format used on BDs/HD-DVDs
    Language                                 : English
    Default                                  : No
    Forced                                   : No
    Statistics Tags Issue                    : mkvmerge v15.0.0 ('Duel with the Devil') 64-bit 2018-07-12 21:50:51 / mkvmerge v15.0.0 ('Duel with the Devil') 64-bit 2018-07-12 21:50:51 / UTC 2018-07-01T11:55:26Z
    FromStats_BitRate                        : 36908
    FromStats_Duration                       : 01:42:05.466000000
    FromStats_FrameCount                     : 2496
    FromStats_StreamSize                     : 28260565

    Text #2
    ID                                       : 5
    Format                                   : PGS
    Muxing mode                              : zlib
    Codec ID                                 : S_HDMV/PGS
    Codec ID/Info                            : Picture based subtitle format used on BDs/HD-DVDs
    Language                                 : Spanish
    Default                                  : No
    Forced                                   : No
    Statistics Tags Issue                    : mkvmerge v15.0.0 ('Duel with the Devil') 64-bit 2018-07-12 21:50:51 / mkvmerge v15.0.0 ('Duel with the Devil') 64-bit 2018-07-12 21:50:51 / UTC 2018-07-01T11:55:26Z
    FromStats_BitRate                        : 35918
    FromStats_Duration                       : 01:32:41.361000000
    FromStats_FrameCount                     : 2461
    FromStats_StreamSize                     : 24969810

    Menu
    00:00:00.000                             : :Chapter 1
    00:05:41.341                             : :Chapter 2
    00:13:15.378                             : :Chapter 3
    00:20:49.582                             : :Chapter 4
    00:25:48.172                             : :Chapter 5
    00:30:09.099                             : :Chapter 6
    00:35:01.057                             : :Chapter 7
    00:40:40.980                             : :Chapter 8
    00:45:48.329                             : :Chapter 9
    00:52:34.526                             : :Chapter 10
    01:00:22.410                             : :Chapter 11
    01:06:50.089                             : :Chapter 12
    01:11:02.550                             : :Chapter 13
    01:17:44.201                             : :Chapter 14
    01:25:06.643                             : :Chapter 15
    01:32:38.887                             : :Chapter 16

  • Peso: 3.38 GiB

Sinopsis

Un grupo de hackers se infiltran en una instalación de una pequeña ciudad costera para robar 102 millones de dólares justo cuando un tornado de categoría 5, la tormenta del siglo, está a punto de estallar. Las únicas dos personas que quedan en el pueblo son un meteorólogo y una agente del tesoro, que deberán sobrevivir a la tormenta y evitar que los ladrones salgan impunes del robo del siglo.

Ficha técnica

Video trailer de la película

Enlaces de descarga

Rip de Bluray

Descargar El gran huracán categoría 5 (2018) Full 1080p Latino




Aportes de DPeliculasHDmega la pass es:dpeliculashdmega.org Aportes de CinemaniaHD la pass es:cinemaniahdd.com

Películas relacionadas

  • Cam (2018) NF 1080p Latino

    2018
    Cam (2018) NF 1080p Latino

    0.0 1h 34m 2018

    Alice es una camgirl con un código inamovible, que le permite mantener una cierta distancia con los...

    Director: Rachel Penner

    Género: Suspense

    Actores: Samantha Robinson

  • El Justiciero 2 (2018) Full 1080p Latino

    2018
    El Justiciero 2 (2018) Full 1080p Latino

    5.0 2h 0m 2018

    Descargar El Justiciero 2 (2018) Full 1080p Latino, Mega, Google Drive. Robert McCall (Denzel Washington)...

    Director: Donald Sparks

    Género: Acción

    Actores: Wesley Pereira

Comentarios 1
  • ocpgaiden - 13 julio, 2018

    estaba esperando esta pelicula, gracias-saludos