×

¿Problemas para descargar con Mozilla, EDGE? Deshabilita la opción "Abrir vinculos en una pestaña nueva" tal como lo muestra ésta imagen.

El hotel gran Budapest (2014) Full HD1080p Latino

1.589 vistas

Información de El hotel gran Budapest (2014) Full HD1080p Latino

el gran hotel budapest 50634 poster e1553566783323

Datos de la película

  • Calidad: Full 1080p
  • Audio: Español Latino AC3 5.1 BLURAY - Ingles DTS 5.1 BLURAY
  • Subtitulos: Español Latino PGS - Ingles PGS
  • Resolución: 1920x1080
  • Formato: MKV
  • Codec: H.264
  • Encoder: Chesse92
  • Mediainfo: Clic para Mostrar Datos Ver
  • The Grand Budapest Hotel (2014) Full HD 1080p Latino(PLACEBO).mkv
    Format                      : Matroska
    Format version              : Version 4
    File size                   : 4.08 GiB
    Duration                    : 1 h 39 min
    Overall bit rate            : 5 852 kb/s
    Movie name                  : CinemaniaHDD.net
    Encoded date                : UTC 2019-03-24 22:40:33
    Writing application         : mkvmerge v30.1.0 ('Forever And More') 64-bit
    Writing library             : libebml v1.3.6 + libmatroska v1.4.9 / Lavf58.20.100

    Video
    ID                          : 1
    Format                      : AVC
    Format/Info                 : Advanced Video Codec
    Format profile              : High@L4.1
    Format settings             : CABAC / 4 Ref Frames
    Format settings, CABAC      : Yes
    Format settings, ReFrames   : 4 frames
    Codec ID                    : V_MPEG4/ISO/AVC
    Duration                    : 1 h 39 min
    Bit rate                    : 3 869 kb/s
    Width                       : 1 920 pixels
    Height                      : 1 080 pixels
    Display aspect ratio        : 16:9
    Frame rate mode             : Constant
    Frame rate                  : 23.976 (24000/1001) FPS
    Color space                 : YUV
    Chroma subsampling          : 4:2:0
    Bit depth                   : 8 bits
    Scan type                   : Progressive
    Bits/(Pixel*Frame)          : 0.078
    Stream size                 : 2.70 GiB (66%)
    Writing library             : x264 core 157 r2935 545de2f
    Encoding settings           : cabac=1 / ref=4 / deblock=1:0:0 / analyse=0x3:0x133 / me=tesa / subme=11 / psy=1 / psy_rd=1.00:0.00 / mixed_ref=1 / me_range=24 / chroma_me=1 / trellis=2 / 8x8dct=1 / cqm=0 / deadzone=21,11 / fast_pskip=0 / chroma_qp_offset=-2 / threads=34 / lookahead_threads=8 / sliced_threads=0 / nr=0 / decimate=1 / interlaced=0 / bluray_compat=0 / constrained_intra=0 / bframes=16 / b_pyramid=2 / b_adapt=2 / b_bias=0 / direct=3 / weightb=1 / open_gop=0 / weightp=2 / keyint=240 / keyint_min=24 / scenecut=40 / intra_refresh=0 / rc_lookahead=60 / rc=crf / mbtree=1 / crf=20.0 / qcomp=0.60 / qpmin=0 / qpmax=69 / qpstep=4 / vbv_maxrate=62500 / vbv_bufsize=78125 / crf_max=0.0 / nal_hrd=none / filler=0 / ip_ratio=1.40 / aq=1:1.00
    Default                     : Yes
    Forced                      : No
    Color range                 : Limited
    Color primaries             : BT.709
    Transfer characteristics    : BT.709
    Matrix coefficients         : BT.709

    Audio #1
    ID                          : 2
    Format                      : AC-3
    Format/Info                 : Audio Coding 3
    Commercial name             : Dolby Digital
    Codec ID                    : A_AC3
    Duration                    : 1 h 39 min
    Bit rate mode               : Constant
    Bit rate                    : 448 kb/s
    Channel(s)                  : 6 channels
    Channel layout              : L R C LFE Ls Rs
    Sampling rate               : 48.0 kHz
    Frame rate                  : 31.250 FPS (1536 SPF)
    Bit depth                   : 16 bits
    Compression mode            : Lossy
    Stream size                 : 320 MiB (8%)
    Title                       : Surround
    Language                    : Spanish
    Service kind                : Complete Main
    Default                     : Yes
    Forced                      : No

    Audio #2
    ID                          : 3
    Format                      : DTS
    Format/Info                 : Digital Theater Systems
    Codec ID                    : A_DTS
    Duration                    : 1 h 39 min
    Bit rate mode               : Constant
    Bit rate                    : 1 509 kb/s
    Channel(s)                  : 6 channels
    Channel layout              : C L R Ls Rs LFE
    Sampling rate               : 48.0 kHz
    Frame rate                  : 93.750 FPS (512 SPF)
    Bit depth                   : 24 bits
    Compression mode            : Lossy
    Stream size                 : 1.05 GiB (26%)
    Title                       : Surround
    Language                    : English
    Default                     : No
    Forced                      : No

    Text #1
    ID                          : 4
    Format                      : PGS
    Muxing mode                 : zlib
    Codec ID                    : S_HDMV/PGS
    Codec ID/Info               : Picture based subtitle format used on BDs/HD-DVDs
    Duration                    : 1 h 39 min
    Bit rate                    : 40.1 kb/s
    Count of elements           : 2403
    Stream size                 : 28.6 MiB (1%)
    Language                    : Spanish
    Default                     : No
    Forced                      : No

    Text #2
    ID                          : 5
    Format                      : PGS
    Muxing mode                 : zlib
    Codec ID                    : S_HDMV/PGS
    Codec ID/Info               : Picture based subtitle format used on BDs/HD-DVDs
    Duration                    : 1 h 31 min
    Bit rate                    : 40.2 kb/s
    Count of elements           : 2852
    Stream size                 : 26.4 MiB (1%)
    Language                    : English
    Default                     : No
    Forced                      : No

    Text #3
    ID                          : 6
    Format                      : PGS
    Muxing mode                 : zlib
    Codec ID                    : S_HDMV/PGS
    Codec ID/Info               : Picture based subtitle format used on BDs/HD-DVDs
    Duration                    : 1 h 39 min
    Bit rate                    : 152 b/s
    Count of elements           : 18
    Stream size                 : 112 KiB (0%)
    Language                    : Spanish
    Default                     : No
    Forced                      : No

    Text #4
    ID                          : 7
    Format                      : UTF-8
    Codec ID                    : S_TEXT/UTF8
    Codec ID/Info               : UTF-8 Plain Text
    Duration                    : 31 min 36 s
    Bit rate                    : 1 b/s
    Count of elements           : 12
    Stream size                 : 318 Bytes (0%)
    Language                    : Spanish
    Default                     : Yes
    Forced                      : No

    Text #5
    ID                          : 8
    Format                      : UTF-8
    Codec ID                    : S_TEXT/UTF8
    Codec ID/Info               : UTF-8 Plain Text
    Duration                    : 1 h 33 min
    Bit rate                    : 71 b/s
    Count of elements           : 1202
    Stream size                 : 48.8 KiB (0%)
    Language                    : Spanish
    Default                     : No
    Forced                      : No

    Menu
    00:00:00.000                : :Chapter 1
    00:02:55.884                : :Chapter 2
    00:06:00.193                : :Chapter 3
    00:08:28.174                : :Chapter 4
    00:11:32.650                : :Chapter 5
    00:14:17.231                : :Chapter 6
    00:17:39.684                : :Chapter 7
    00:19:56.320                : :Chapter 8
    00:23:08.888                : :Chapter 9
    00:25:35.492                : :Chapter 10
    00:29:29.685                : :Chapter 11
    00:32:11.888                : :Chapter 12
    00:34:16.388                : :Chapter 13
    00:35:51.775                : :Chapter 14
    00:38:58.169                : :Chapter 15
    00:40:18.958                : :Chapter 16
    00:41:43.918                : :Chapter 17
    00:45:22.887                : :Chapter 18
    00:48:22.775                : :Chapter 19
    00:51:53.152                : :Chapter 20
    00:55:18.398                : :Chapter 21
    00:59:08.712                : :Chapter 22
    01:04:17.187                : :Chapter 23
    01:08:35.153                : :Chapter 24
    01:12:20.628                : :Chapter 25
    01:16:19.075                : :Chapter 26
    01:17:41.657                : :Chapter 27
    01:20:47.968                : :Chapter 28
    01:24:02.538                : :Chapter 29
    01:27:08.724                : :Chapter 30
    01:30:56.159                : :Chapter 31
    01:32:57.614                : :Chapter 32

  • Peso: 4.08 GiB

Sinopsis

El Sr. Gustave H., un legendario conserje de un famoso hotel europeo de entreguerras, entabla amistad con Zero Moustafa, un joven empleado al que convierte en su protegido. La historia trata sobre el robo y la recuperación de una pintura renacentista de valor incalculable y sobre la batalla que enfrenta a los miembros de una familia por una inmensa fortuna. Como telón de fondo, los levantamientos que transformaron Europa durante la primera mitad del siglo XX.

Ficha técnica

Video trailer de la película

Enlaces de descarga

Rip de Bluray

Descargar El hotel gran Budapest (2014) Full HD1080p Latino




Aportes de DPeliculasHDmega la pass es:dpeliculashdmega.org Aportes de CinemaniaHD la pass es:cinemaniahdd.com

Películas relacionadas

  • Stromboli (2022) NF WEB-DL 1080p Latino

    Stromboli (2022) NF WEB-DL 1080p Latino

    2022
    Stromboli (2022) NF WEB-DL 1080p Latino

    1h 26m 2022

    Descargar Stromboli (2022) NF WEB-DL 1080p Latino. Sara, una mujer que se ha divorciado recientemente,...

    Director: Michiel van Erp

    Género: Drama

    Actores: Tim McInnerny

  • Infiesto (2023) NF WEB-DL 1080p Castellano

    Infiesto (2023) NF WEB-DL 1080p Castellano

    2023
    Infiesto (2023) NF WEB-DL 1080p Castellano

    1h 36m 2023

    Descargar Infiesto (2023) NF WEB-DL 1080p Castellano. Mientras el coronavirus trastoca sus vidas, dos...

    Director: Patxi Amezcua

    Género: Crimen

    Actores: Luis Zahera

  • Espiritu Libre (2023) NF WEB-DL 1080p Latino

    Espiritu Libre (2023) NF WEB-DL 1080p Latino

    2023
    Espiritu Libre (2023) NF WEB-DL 1080p Latino

    1h 49m 2023

    Descargar Espiritu Libre (2023) NF WEB-DL 1080p Latino. La película se basa en la increíble historia...

    Director: Sarah Spillane

    Género: Aventura

    Actores: Vivien Turner

descargar El hotel gran Budapest (2014) Full HD1080p Latino Full 1080p 1080p gratis, El hotel gran Budapest (2014) Full HD1080p Latino Full 1080p mega 1 link, El hotel gran Budapest (2014) Full HD1080p Latino Full 1080p pelicula completa, descargar El hotel gran Budapest (2014) Full HD1080p Latino Full 1080p gratis en mega.

El hotel gran Budapest (2014) Full HD1080p Latino pelicula full hd, El hotel gran Budapest (2014) Full HD1080p Latino mega latino, El hotel gran Budapest (2014) Full HD1080p Latino 4k latino, El hotel gran Budapest (2014) Full HD1080p Latino pelicula completa, El hotel gran Budapest (2014) Full HD1080p Latino descargar gratis, descargar El hotel gran Budapest (2014) Full HD1080p Latino pelicula latino, El hotel gran Budapest (2014) Full HD1080p Latino 1 link mega, El hotel gran Budapest (2014) Full HD1080p Latino 1 link google drive, El hotel gran Budapest (2014) Full HD1080p Latino hd 1080p latino.
Comentarios 0