×

¿Problemas para descargar con Mozilla, EDGE? Deshabilita la opción "Abrir vinculos en una pestaña nueva" tal como lo muestra ésta imagen.

El gabinete de curiosidades de Guillermo del Toro (2022) Temporada 1 NF WEB-DL 1080p Latino

35 vistas

Información de El gabinete de curiosidades de Guillermo del Toro (2022) Temporada 1 NF WEB-DL 1080p Latino

Datos de la película

  • Calidad: WEBDL
  • Audio: Español Latino E-AC3 5.1 Netflix - Ingles E-AC3 5.1 Netflix
  • Subtitulos: Español Latino SRT- FORZADOS SRT
  • Resolución: 1920x1080p
  • Formato: MKV
  • Codec: H.264
  • Encoder: Melkor
  • Mediainfo: Clic para Mostrar Datos Ver
  • Guillermo del Toro's Cabinet of Curiosities S01E01 (2022) NF WEB-DL 1080p Latino.mkv
    Format                      : Matroska
    Format version              : Version 4
    File size                   : 2.28 GiB
    Duration                    : 46 min 19 s
    Overall bit rate mode       : Variable
    Overall bit rate            : 7 046 kb/s
    Movie name                  : Guillermo del Toro's Cabinet of Curiosities S01E01 CinemaniaHDD.Net
    Encoded date                : UTC 2022-10-31 03:45:56
    Writing application         : mkvmerge v59.0.0 ('Shining Star') 64-bit
    Writing library             : libebml v1.4.2 + libmatroska v1.6.4
    Attachments                 : CINEMANIAHD.png

    Video
    ID                          : 1
    Format                      : AVC
    Format/Info                 : Advanced Video Codec
    Format profile              : Main@L4
    Format settings             : CABAC / 3 Ref Frames
    Format settings, CABAC      : Yes
    Format settings, Reference  : 3 frames
    Codec ID                    : V_MPEG4/ISO/AVC
    Duration                    : 46 min 18 s
    Bit rate mode               : Variable
    Bit rate                    : 5 800 kb/s
    Maximum bit rate            : 8 700 kb/s
    Width                       : 1 920 pixels
    Height                      : 1 080 pixels
    Display aspect ratio        : 16:9
    Frame rate mode             : Constant
    Frame rate                  : 24.000 FPS
    Color space                 : YUV
    Chroma subsampling          : 4:2:0
    Bit depth                   : 8 bits
    Scan type                   : Progressive
    Bits/(Pixel*Frame)          : 0.117
    Stream size                 : 1.82 GiB (80%)
    Title                       : WEB HD1080p [CinemaniaHDD]
    Writing library             : x264 core 148 r2727 7d026e8
    Encoding settings           : cabac=1 / ref=3 / deblock=1:0:0 / analyse=0x1:0x111 / me=umh / subme=10 / psy=1 / psy_rd=1.00:0.00 / mixed_ref=1 / me_range=24 / chroma_me=1 / trellis=2 / 8x8dct=0 / cqm=0 / deadzone=21,11 / fast_pskip=1 / chroma_qp_offset=-2 / threads=8 / lookahead_threads=1 / sliced_threads=0 / nr=0 / decimate=1 / interlaced=0 / bluray_compat=0 / stitchable=1 / constrained_intra=0 / bframes=2 / b_pyramid=0 / b_adapt=2 / b_bias=0 / direct=3 / weightb=1 / open_gop=0 / weightp=2 / keyint=250 / keyint_min=24 / scenecut=0 / intra_refresh=0 / rc_lookahead=48 / rc=2pass / mbtree=1 / bitrate=5800 / ratetol=1.0 / qcomp=0.50 / qpmin=6 / qpmax=51 / qpstep=4 / cplxblur=20.0 / qblur=0.5 / vbv_maxrate=8700 / vbv_bufsize=11600 / nal_hrd=vbr / filler=0 / ip_ratio=1.40 / aq=1:1.00
    Default                     : Yes
    Forced                      : Yes

    Audio #1
    ID                          : 2
    Format                      : E-AC-3
    Format/Info                 : Enhanced AC-3
    Commercial name             : Dolby Digital Plus
    Codec ID                    : A_EAC3
    Duration                    : 46 min 19 s
    Bit rate mode               : Constant
    Bit rate                    : 640 kb/s
    Channel(s)                  : 6 channels
    Channel layout              : L R C LFE Ls Rs
    Sampling rate               : 48.0 kHz
    Frame rate                  : 31.250 FPS (1536 SPF)
    Compression mode            : Lossy
    Stream size                 : 212 MiB (9%)
    Title                       : Español Latino [CinemaniaHDD]
    Language                    : Spanish
    Service kind                : Complete Main
    Default                     : Yes
    Forced                      : Yes

    Audio #2
    ID                          : 3
    Format                      : E-AC-3 JOC
    Format/Info                 : Enhanced AC-3 with Joint Object Coding
    Commercial name             : Dolby Digital Plus with Dolby Atmos
    Codec ID                    : A_EAC3
    Duration                    : 46 min 18 s
    Bit rate mode               : Constant
    Bit rate                    : 768 kb/s
    Channel(s)                  : 6 channels
    Channel layout              : L R C LFE Ls Rs
    Sampling rate               : 48.0 kHz
    Frame rate                  : 31.250 FPS (1536 SPF)
    Compression mode            : Lossy
    Stream size                 : 254 MiB (11%)
    Title                       : Ingles [CinemaniaHDD]
    Language                    : English
    Service kind                : Complete Main
    Default                     : No
    Forced                      : No
    Complexity index            : 16
    Number of dynamic objects   : 15
    Bed channel count           : 1 channel
    Bed channel configuration   : LFE

    Text #1
    ID                          : 4
    Format                      : UTF-8
    Codec ID                    : S_TEXT/UTF8
    Codec ID/Info               : UTF-8 Plain Text
    Duration                    : 44 min 42 s
    Bit rate                    : 6 b/s
    Count of elements           : 51
    Stream size                 : 2.04 KiB (0%)
    Title                       : Forzados-SRT [CinemaniaHDD]
    Language                    : Spanish
    Default                     : Yes
    Forced                      : Yes

    Text #2
    ID                          : 5
    Format                      : UTF-8
    Codec ID                    : S_TEXT/UTF8
    Codec ID/Info               : UTF-8 Plain Text
    Duration                    : 44 min 42 s
    Bit rate                    : 49 b/s
    Count of elements           : 517
    Stream size                 : 16.3 KiB (0%)
    Title                       : Español-SRT [CinemaniaHDD]
    Language                    : Spanish
    Default                     : No
    Forced                      : No

    Text #3
    ID                          : 6
    Format                      : UTF-8
    Codec ID                    : S_TEXT/UTF8
    Codec ID/Info               : UTF-8 Plain Text
    Duration                    : 44 min 45 s
    Bit rate                    : 65 b/s
    Count of elements           : 682
    Stream size                 : 21.3 KiB (0%)
    Title                       : Ingles-SRT [CinemaniaHDD]
    Language                    : English
    Default                     : No
    Forced                      : No

  • Peso: 2.5 GiB Aprox. C/U -- 21 GiB -- 8 Chapters

Sinopsis

Descargar El gabinete de curiosidades de Guillermo del Toro (2022) Temporada 1 NF WEB-DL 1080p Latino. En esta colección de terror escalofriante y de gran impacto visual, las pesadillas más extrañas se desenvuelven en ocho tétricas historias seleccionadas por Guillermo del Toro.

Ficha técnica

Video trailer de la película

Enlaces de descarga

Rip de Bluray

Descargar El gabinete de curiosidades de Guillermo del Toro (2022) Temporada 1 NF WEB-DL 1080p Latino




Aportes de DPeliculasHDmega la pass es:dpeliculashdmega.org Aportes de CinemaniaHD la pass es:cinemaniahdd.com
Guardado en : Drama , Misterio , Netflix , Series

Películas relacionadas

descargar El gabinete de curiosidades de Guillermo del Toro (2022) Temporada 1 NF WEB-DL 1080p Latino WEBDL 1080p gratis, El gabinete de curiosidades de Guillermo del Toro (2022) Temporada 1 NF WEB-DL 1080p Latino WEBDL mega 1 link, El gabinete de curiosidades de Guillermo del Toro (2022) Temporada 1 NF WEB-DL 1080p Latino WEBDL serie completa, descargar El gabinete de curiosidades de Guillermo del Toro (2022) Temporada 1 NF WEB-DL 1080p Latino WEBDL gratis en mega.

El gabinete de curiosidades de Guillermo del Toro (2022) Temporada 1 NF WEB-DL 1080p Latino pelicula full hd, El gabinete de curiosidades de Guillermo del Toro (2022) Temporada 1 NF WEB-DL 1080p Latino mega latino, El gabinete de curiosidades de Guillermo del Toro (2022) Temporada 1 NF WEB-DL 1080p Latino 4k latino, El gabinete de curiosidades de Guillermo del Toro (2022) Temporada 1 NF WEB-DL 1080p Latino pelicula completa, El gabinete de curiosidades de Guillermo del Toro (2022) Temporada 1 NF WEB-DL 1080p Latino descargar gratis, descargar El gabinete de curiosidades de Guillermo del Toro (2022) Temporada 1 NF WEB-DL 1080p Latino pelicula latino, El gabinete de curiosidades de Guillermo del Toro (2022) Temporada 1 NF WEB-DL 1080p Latino 1 link mega, El gabinete de curiosidades de Guillermo del Toro (2022) Temporada 1 NF WEB-DL 1080p Latino 1 link google drive, El gabinete de curiosidades de Guillermo del Toro (2022) Temporada 1 NF WEB-DL 1080p Latino hd 1080p latino.
Comentarios 0