×

¿Problemas para descargar con Mozilla, EDGE? Deshabilita la opción "Abrir vinculos en una pestaña nueva" tal como lo muestra ésta imagen.

El fotógrafo de Mauthausen (2018) NF 1080p Castellano

1.353 vistas

Información de El fotógrafo de Mauthausen (2018) NF 1080p Castellano

el fotografo de mauthausen 49900 poster

Datos de la película

  • Calidad: WEBDL
  • Audio: Español España AC3 5.1 Netflix
  • Subtitulos: No
  • Resolución: 1920x1080
  • Formato: MKV
  • Codec: H.264
  • Encoder: cinemaniahd
  • Mediainfo: Clic para Mostrar Datos Ver
  • El fotógrafo de Mauthausen (2018) NF 1080p Latino.mkv
    Format                      : Matroska
    Format version              : Version 4
    File size                   : 1.62 GiB
    Duration                    : 1 h 50 min
    Overall bit rate mode       : Variable
    Overall bit rate            : 2 101 kb/s
    Movie name                  : CinemaniaHDD.net
    Encoded date                : UTC 2019-02-22 14:03:26
    Writing application         : mkvmerge v30.1.0 ('Forever And More') 64-bit
    Writing library             : libebml v1.3.6 + libmatroska v1.4.9

    Video
    ID                          : 1
    Format                      : AVC
    Format/Info                 : Advanced Video Codec
    Format profile              : High@L4
    Format settings             : CABAC / 4 Ref Frames
    Format settings, CABAC      : Yes
    Format settings, ReFrames   : 4 frames
    Codec ID                    : V_MPEG4/ISO/AVC
    Duration                    : 1 h 50 min
    Bit rate mode               : Variable
    Bit rate                    : 1 717 kb/s
    Maximum bit rate            : 20.0 Mb/s
    Width                       : 1 920 pixels
    Height                      : 1 080 pixels
    Display aspect ratio        : 16:9
    Frame rate mode             : Constant
    Frame rate                  : 24.000 FPS
    Color space                 : YUV
    Chroma subsampling          : 4:2:0
    Bit depth                   : 8 bits
    Scan type                   : Progressive
    Bits/(Pixel*Frame)          : 0.034
    Stream size                 : 1.32 GiB (82%)
    Writing library             : x264 core 148 r2715 7e75228
    Encoding settings           : cabac=1 / ref=4 / deblock=1:0:0 / analyse=0x3:0x111 / me=umh / subme=10 / psy=1 / psy_rd=1.00:0.00 / mixed_ref=1 / me_range=120 / chroma_me=1 / trellis=2 / 8x8dct=1 / cqm=0 / deadzone=21,11 / fast_pskip=1 / chroma_qp_offset=-2 / threads=8 / lookahead_threads=2 / sliced_threads=0 / nr=0 / decimate=1 / interlaced=0 / bluray_compat=0 / stitchable=1 / constrained_intra=0 / bframes=16 / b_pyramid=2 / b_adapt=2 / b_bias=0 / direct=3 / weightb=1 / open_gop=0 / weightp=2 / keyint=240 / keyint_min=121 / scenecut=0 / intra_refresh=0 / rc_lookahead=240 / rc=crf / mbtree=1 / crf=24.0 / qcomp=0.50 / qpmin=6 / qpmax=51 / qpstep=4 / vbv_maxrate=20000 / vbv_bufsize=25000 / crf_max=0.0 / nal_hrd=vbr / filler=0 / ip_ratio=1.40 / aq=1:0.80
    Default                     : Yes
    Forced                      : No

    Audio
    ID                          : 2
    Format                      : AC-3
    Format/Info                 : Audio Coding 3
    Commercial name             : Dolby Digital
    Codec ID                    : A_AC3
    Duration                    : 1 h 50 min
    Bit rate mode               : Constant
    Bit rate                    : 384 kb/s
    Channel(s)                  : 6 channels
    Channel layout              : L R C LFE Ls Rs
    Sampling rate               : 48.0 kHz
    Frame rate                  : 31.250 FPS (1536 SPF)
    Bit depth                   : 16 bits
    Compression mode            : Lossy
    Stream size                 : 303 MiB (18%)
    Service kind                : Complete Main
    Default                     : Yes
    Forced                      : No

    Text #1
    ID                          : 3
    Format                      : UTF-8
    Codec ID                    : S_TEXT/UTF8
    Codec ID/Info               : UTF-8 Plain Text
    Duration                    : 1 h 45 min
    Bit rate                    : 29 b/s
    Count of elements           : 792
    Stream size                 : 23.0 KiB (0%)
    Title                       : English
    Language                    : English
    Default                     : No
    Forced                      : No

    Text #2
    ID                          : 4
    Format                      : UTF-8
    Codec ID                    : S_TEXT/UTF8
    Codec ID/Info               : UTF-8 Plain Text
    Duration                    : 1 h 48 min
    Bit rate                    : 39 b/s
    Count of elements           : 1004
    Stream size                 : 31.3 KiB (0%)
    Title                       : European Spanish
    Language                    : Spanish
    Default                     : No
    Forced                      : No

  • Peso: 1.62 GiB

Sinopsis

Con la ayuda de un grupo de prisioneros españoles que lideran la organización clandestina del campo de concentración de Mauthausen, Francesc Boix, un preso que trabaja en el laboratorio fotográfico, arriesga su vida al planear la evasión de unos negativos que demostrarán al mundo las atrocidades cometidas por los nazis. Miles de imágenes que muestran desde dentro toda la crueldad de un sistema perverso. Las fotografías que Boix y sus compañeros lograron salvar fueron determinantes para condenar a altos cargos nazis en los juicios de Núremberg en 1946. Boix fue el único español que asistió como testigo.

Ficha técnica

Video trailer de la película

Enlaces de descarga

Rip de Bluray

Descargar El fotógrafo de Mauthausen (2018) NF 1080p Castellano




Aportes de DPeliculasHDmega la pass es:dpeliculashdmega.org Aportes de CinemaniaHD la pass es:cinemaniahdd.com

Películas relacionadas

descargar El fotógrafo de Mauthausen (2018) NF 1080p Castellano WEBDL 1080p gratis, El fotógrafo de Mauthausen (2018) NF 1080p Castellano WEBDL mega 1 link, El fotógrafo de Mauthausen (2018) NF 1080p Castellano WEBDL pelicula completa, descargar El fotógrafo de Mauthausen (2018) NF 1080p Castellano WEBDL gratis en mega.

El fotógrafo de Mauthausen (2018) NF 1080p Castellano pelicula full hd, El fotógrafo de Mauthausen (2018) NF 1080p Castellano mega latino, El fotógrafo de Mauthausen (2018) NF 1080p Castellano 4k latino, El fotógrafo de Mauthausen (2018) NF 1080p Castellano pelicula completa, El fotógrafo de Mauthausen (2018) NF 1080p Castellano descargar gratis, descargar El fotógrafo de Mauthausen (2018) NF 1080p Castellano pelicula latino, El fotógrafo de Mauthausen (2018) NF 1080p Castellano 1 link mega, El fotógrafo de Mauthausen (2018) NF 1080p Castellano 1 link google drive, El fotógrafo de Mauthausen (2018) NF 1080p Castellano hd 1080p latino.
Comentarios 0