×

¿Problemas para descargar con Mozilla, EDGE? Deshabilita la opción "Abrir vinculos en una pestaña nueva" tal como lo muestra ésta imagen.

El Fantasma de Madeline O’Malley (2011) 1080p Latino

1.338 vistas

Información de El Fantasma de Madeline O’Malley (2011) 1080p Latino

los huespedes 52247 poster

Datos de la película

  • Calidad: 1080p
  • Audio: Español Latino AC3 2.0 DVD - Ingles AC3 5.1 BLURAY
  • Subtitulos: Español Latino SRT- FORZADOS SRT
  • Resolución: 1920x800
  • Formato: MKV
  • Codec: H.264
  • Encoder: cinemaniahdd
  • Mediainfo: Clic para Mostrar Datos Ver
  • El Fantasma de Madeline O'Malley (2011) 1080p Latino.mkv
    Format                      : Matroska
    Format version              : Version 4
    File size                   : 2.93 GiB
    Duration                    : 1 h 41 min
    Overall bit rate            : 4 141 kb/s
    Movie name                  : CinemaniaHDD.Net
    Encoded date                : UTC 2019-04-10 03:20:01
    Writing application         : mkvmerge v22.0.0 ('At The End Of The World') 64-bit
    Writing library             : libebml v1.3.5 + libmatroska v1.4.8

    Video
    ID                          : 1
    Format                      : AVC
    Format/Info                 : Advanced Video Codec
    Format profile              : Main@L4
    Format settings             : CABAC / 5 Ref Frames
    Format settings, CABAC      : Yes
    Format settings, ReFrames   : 5 frames
    Codec ID                    : V_MPEG4/ISO/AVC
    Duration                    : 1 h 41 min
    Bit rate                    : 3 500 kb/s
    Width                       : 1 920 pixels
    Height                      : 800 pixels
    Display aspect ratio        : 2.40:1
    Frame rate mode             : Constant
    Frame rate                  : 23.976 (24000/1001) FPS
    Color space                 : YUV
    Chroma subsampling          : 4:2:0
    Bit depth                   : 8 bits
    Scan type                   : Progressive
    Bits/(Pixel*Frame)          : 0.095
    Stream size                 : 2.43 GiB (83%)
    Title                       : CinemaniaHDD.Net
    Writing library             : x264 core 157 r2935 545de2f
    Encoding settings           : cabac=1 / ref=5 / deblock=1:0:0 / analyse=0x1:0x131 / me=umh / subme=9 / psy=1 / psy_rd=1.00:0.00 / mixed_ref=1 / me_range=16 / chroma_me=1 / trellis=2 / 8x8dct=0 / cqm=0 / deadzone=21,11 / fast_pskip=1 / chroma_qp_offset=-2 / threads=25 / lookahead_threads=2 / sliced_threads=0 / nr=0 / decimate=1 / interlaced=0 / bluray_compat=0 / constrained_intra=0 / bframes=3 / b_pyramid=2 / b_adapt=2 / b_bias=0 / direct=3 / weightb=1 / open_gop=0 / weightp=2 / keyint=240 / keyint_min=24 / scenecut=40 / intra_refresh=0 / rc_lookahead=60 / rc=abr / mbtree=1 / bitrate=3500 / ratetol=1.0 / qcomp=0.60 / qpmin=0 / qpmax=69 / qpstep=4 / vbv_maxrate=20000 / vbv_bufsize=25000 / nal_hrd=none / filler=0 / ip_ratio=1.40 / aq=1:1.00
    Default                     : Yes
    Forced                      : No
    Color range                 : Limited
    Color primaries             : BT.709
    Transfer characteristics    : BT.709
    Matrix coefficients         : BT.709

    Audio #1
    ID                          : 2
    Format                      : AC-3
    Format/Info                 : Audio Coding 3
    Commercial name             : Dolby Digital
    Codec ID                    : A_AC3
    Duration                    : 1 h 41 min
    Bit rate mode               : Constant
    Bit rate                    : 256 kb/s
    Channel(s)                  : 2 channels
    Channel layout              : L R
    Sampling rate               : 48.0 kHz
    Frame rate                  : 31.250 FPS (1536 SPF)
    Bit depth                   : 16 bits
    Compression mode            : Lossy
    Stream size                 : 186 MiB (6%)
    Title                       : CinemaniaHDD.Net
    Language                    : Spanish
    Service kind                : Complete Main
    Default                     : Yes
    Forced                      : No

    Audio #2
    ID                          : 3
    Format                      : AC-3
    Format/Info                 : Audio Coding 3
    Commercial name             : Dolby Digital
    Codec ID                    : A_AC3
    Duration                    : 1 h 41 min
    Bit rate mode               : Constant
    Bit rate                    : 448 kb/s
    Channel(s)                  : 6 channels
    Channel layout              : L R C LFE Ls Rs
    Sampling rate               : 48.0 kHz
    Frame rate                  : 31.250 FPS (1536 SPF)
    Bit depth                   : 16 bits
    Compression mode            : Lossy
    Delay relative to video     : 6 ms
    Stream size                 : 325 MiB (11%)
    Title                       : CinemaniaHDD.Net
    Language                    : English
    Service kind                : Complete Main
    Default                     : No
    Forced                      : No

    Text #1
    ID                          : 4
    Format                      : UTF-8
    Codec ID                    : S_TEXT/UTF8
    Codec ID/Info               : UTF-8 Plain Text
    Duration                    : 1 h 40 min
    Bit rate                    : 0 b/s
    Count of elements           : 17
    Stream size                 : 460 Bytes (0%)
    Title                       : Forzados - CinemaniaHDD.Net
    Language                    : Spanish
    Default                     : Yes
    Forced                      : Yes

    Text #2
    ID                          : 5
    Format                      : UTF-8
    Codec ID                    : S_TEXT/UTF8
    Codec ID/Info               : UTF-8 Plain Text
    Duration                    : 1 h 40 min
    Bit rate                    : 31 b/s
    Count of elements           : 668
    Stream size                 : 22.9 KiB (0%)
    Title                       : CinemaniaHDD.Net
    Language                    : Spanish
    Default                     : No
    Forced                      : No

    Menu
    00:00:00.000                : :Chapter 1
    00:02:49.044                : :Chapter 2
    00:07:59.604                : :Chapter 3
    00:11:59.594                : :Chapter 4
    00:14:44.133                : :Chapter 5
    00:20:25.182                : :Chapter 6
    00:25:07.297                : :Chapter 7
    00:29:05.369                : :Chapter 8
    00:34:23.687                : :Chapter 9
    00:40:23.212                : :Chapter 10
    00:48:57.643                : :Chapter 11
    00:52:18.510                : :Chapter 12
    00:59:13.175                : :Chapter 13
    01:06:37.410                : :Chapter 14
    01:10:15.253                : :Chapter 15
    01:16:18.407                : :Chapter 16
    01:20:49.636                : :Chapter 17
    01:26:49.913                : :Chapter 18
    01:30:20.415                : :Chapter 19
    01:37:04.861                : :Chapter 20

     

  • Peso: 2.93 GiB

Sinopsis

The Innkeepers se centrará en los dos últimos empleados de un hotel antes que este cierre sus puertas. Después de cien años en el negocio, el Yankee Pedlar Hotel está a punto de cerrar. Sus dos últimos empleados son Claire, una chica alrededor de los veinte que ha aceptado su lugar en la vida, y Luke, un chico experto en computadoras y solitario. Ambos tienen la obsesión de que el hotel está maldito y están dispuestos a demostrarlo. El tiempo se les echa encima en los días de la operación, con misteriosos invitados como Leanne Reese-Jones, una antigua actriz de televisión reconvertida en psíquica, y una anciano que persiste en quedarse en su habitación, la 353. Varios acontecimientos extraños se empiezan a suceder, y Claire y Luke deberán tomar la crucial decisión sobre que creer y que no creer.

Ficha técnica

Video trailer de la película

Enlaces de descarga

Rip de Bluray

Descargar El Fantasma de Madeline O’Malley (2011) 1080p Latino




Aportes de DPeliculasHDmega la pass es:dpeliculashdmega.org Aportes de CinemaniaHD la pass es:cinemaniahdd.com
Guardado en : Suspenso , Terror

Películas relacionadas

  • The Independent (2022) PCOK WEB-DL 1080p Latino

    The Independent (2022) PCOK WEB-DL 1080p Latino

    2022
    The Independent (2022) PCOK WEB-DL 1080p Latino

    1h 48m 2022

    Una joven periodista descubre una conspiración que involucra a un candidato presidencial de Estados...

    Director: Amy Rice

    Género: Suspenso

    Actores: Zane Pais

  • Observada (2022) HD 1080p Latino

    Observada (2022) HD 1080p Latino

    2022
    Observada (2022) HD 1080p Latino

    1h 35m 2022

    Descargar Observada (2022) HD 1080p Latino. Una joven se muda a un nuevo apartamento con su prometido...

    Director: Chloe Okuno

    Género: HD 1080p

    Actores: Tudor Petruț

  • Observada (2022) PLACEBO Full HD 1080p Latino

    Observada (2022) PLACEBO Full HD 1080p Latino

    2022
    Observada (2022) PLACEBO Full HD 1080p Latino

    1h 35m 2022

    Descargar Observada (2022) PLACEBO Full HD 1080p Latino. Una joven se muda a un nuevo apartamento con...

    Director: Chloe Okuno

    Género: FULL 1080p Plateadas

    Actores: Tudor Petruț

  • Observada (2022) REMUX 1080p Latino

    Observada (2022) REMUX 1080p Latino

    2022
    Observada (2022) REMUX 1080p Latino

    1h 35m 2022

    Descargar Observada (2022) REMUX 1080p Latino. Una joven se muda a un nuevo apartamento con su prometido...

    Director: Chloe Okuno

    Género: Misterio

    Actores: Tudor Petruț

  • Wifelike (2022) WEB-DL 1080p Latino

    Wifelike (2022) WEB-DL 1080p Latino

    2022
    Wifelike (2022) WEB-DL 1080p Latino

    1h 46m 2022

    Descargar Wifelike (2022) WEB-DL 1080p Latino. La humana artificial Meredith es asignada como acompañante...

    Director: James Bird

    Género: Ciencia ficción

    Actores: Stephen Lobo

descargar El Fantasma de Madeline O’Malley (2011) 1080p Latino 1080p 1080p gratis, El Fantasma de Madeline O’Malley (2011) 1080p Latino 1080p mega 1 link, El Fantasma de Madeline O’Malley (2011) 1080p Latino 1080p pelicula completa, descargar El Fantasma de Madeline O’Malley (2011) 1080p Latino 1080p gratis en mega.

El Fantasma de Madeline O’Malley (2011) 1080p Latino pelicula full hd, El Fantasma de Madeline O’Malley (2011) 1080p Latino mega latino, El Fantasma de Madeline O’Malley (2011) 1080p Latino 4k latino, El Fantasma de Madeline O’Malley (2011) 1080p Latino pelicula completa, El Fantasma de Madeline O’Malley (2011) 1080p Latino descargar gratis, descargar El Fantasma de Madeline O’Malley (2011) 1080p Latino pelicula latino, El Fantasma de Madeline O’Malley (2011) 1080p Latino 1 link mega, El Fantasma de Madeline O’Malley (2011) 1080p Latino 1 link google drive, El Fantasma de Madeline O’Malley (2011) 1080p Latino hd 1080p latino.
Comentarios 0