×

¿Problemas para descargar con Mozilla, EDGE? Deshabilita la opción "Abrir vinculos en una pestaña nueva" tal como lo muestra ésta imagen.

El extraño mundo de Jack (1993) REMUX 1080p Latino – CMHDD

494 vistas

Información de El extraño mundo de Jack (1993) REMUX 1080p Latino – CMHDD

Datos de la película

  • Calidad: Full 1080p
  • Audio: Español Latino AC3 5.1 BLURAY - Ingles AC3 5.1 BLURAY
  • Subtitulos: Español Latino SRT- FORZADOS SRT
  • Resolución: 1920x1080p
  • Formato: MKV
  • Codec: H.264
  • Encoder: Dracarys
  • Mediainfo: Clic para Mostrar Datos Ver
  • Format                      : Matroska
    Format version              : Version 4
    File size                   : 15.2 GiB
    Duration                    : 1 h 16 min
    Overall bit rate mode       : Variable
    Overall bit rate            : 28.3 Mb/s
    Movie name                  : El extraño mundo de Jack (1993) REMUX 1080p Latino - CMHDD
    Encoded date                : UTC 2020-05-19 20:41:21
    Writing application         : mkvmerge v46.0.0 ('No Deeper Escape') 64-bit
    Writing library             : libebml v1.3.10 + libmatroska v1.5.2

    Video
    ID                          : 1
    Format                      : AVC
    Format/Info                 : Advanced Video Codec
    Format profile              : High@L4.1
    Format settings             : CABAC / 4 Ref Frames
    Format settings, CABAC      : Yes
    Format settings, Reference  : 4 frames
    Codec ID                    : V_MPEG4/ISO/AVC
    Duration                    : 1 h 16 min
    Bit rate mode               : Variable
    Bit rate                    : 22.1 Mb/s
    Maximum bit rate            : 26.9 Mb/s
    Width                       : 1 920 pixels
    Height                      : 1 080 pixels
    Display aspect ratio        : 16:9
    Frame rate mode             : Constant
    Frame rate                  : 23.976 (24000/1001) FPS
    Color space                 : YUV
    Chroma subsampling          : 4:2:0
    Bit depth                   : 8 bits
    Scan type                   : Progressive
    Bits/(Pixel*Frame)          : 0.445
    Stream size                 : 11.8 GiB (78%)
    Default                     : Yes
    Forced                      : No

    Audio #1
    ID                          : 2
    Format                      : AC-3
    Format/Info                 : Audio Coding 3
    Commercial name             : Dolby Digital
    Codec ID                    : A_AC3
    Duration                    : 1 h 16 min
    Bit rate mode               : Constant
    Bit rate                    : 640 kb/s
    Channel(s)                  : 6 channels
    Channel layout              : L R C LFE Ls Rs
    Sampling rate               : 44.1 kHz
    Frame rate                  : 28.711 FPS (1536 SPF)
    Compression mode            : Lossy
    Stream size                 : 351 MiB (2%)
    Language                    : Spanish
    Service kind                : Complete Main
    Default                     : Yes
    Forced                      : No

    Audio #2
    ID                          : 3
    Format                      : MLP FBA
    Format/Info                 : Meridian Lossless Packing FBA
    Commercial name             : Dolby TrueHD
    Codec ID                    : A_TRUEHD
    Duration                    : 1 h 16 min
    Bit rate mode               : Variable
    Bit rate                    : 4 865 kb/s
    Maximum bit rate            : 6 048 kb/s
    Channel(s)                  : 8 channels
    Channel layout              : L R C LFE Ls Rs Lb Rb
    Sampling rate               : 48.0 kHz
    Frame rate                  : 1 200.000 FPS (40 SPF)
    Compression mode            : Lossless
    Stream size                 : 2.60 GiB (17%)
    Language                    : English
    Default                     : No
    Forced                      : No

    Audio #3
    ID                          : 4
    Format                      : AC-3
    Format/Info                 : Audio Coding 3
    Commercial name             : Dolby Digital
    Codec ID                    : A_AC3
    Duration                    : 1 h 16 min
    Bit rate mode               : Constant
    Bit rate                    : 640 kb/s
    Channel(s)                  : 6 channels
    Channel layout              : L R C LFE Ls Rs
    Sampling rate               : 48.0 kHz
    Frame rate                  : 31.250 FPS (1536 SPF)
    Compression mode            : Lossy
    Stream size                 : 351 MiB (2%)
    Language                    : English
    Service kind                : Complete Main
    Default                     : No
    Forced                      : No

    Text #1
    ID                          : 5
    Format                      : UTF-8
    Codec ID                    : S_TEXT/UTF8
    Codec ID/Info               : UTF-8 Plain Text
    Duration                    : 59 min 59 s
    Bit rate                    : 0 b/s
    Count of elements           : 15
    Stream size                 : 299 Bytes (0%)
    Title                       : SRT-Forzados
    Language                    : Spanish
    Default                     : Yes
    Forced                      : No

    Text #2
    ID                          : 6
    Format                      : UTF-8
    Codec ID                    : S_TEXT/UTF8
    Codec ID/Info               : UTF-8 Plain Text
    Duration                    : 1 h 10 min
    Bit rate                    : 62 b/s
    Count of elements           : 888
    Stream size                 : 32.6 KiB (0%)
    Title                       : SRT-Completos
    Default                     : No
    Forced                      : No

    Text #3
    ID                          : 7
    Format                      : PGS
    Muxing mode                 : zlib
    Codec ID                    : S_HDMV/PGS
    Codec ID/Info               : Picture based subtitle format used on BDs/HD-DVDs
    Duration                    : 1 h 10 min
    Bit rate                    : 33.9 kb/s
    Count of elements           : 1622
    Stream size                 : 17.2 MiB (0%)
    Title                       : PGS-Completos
    Language                    : Spanish
    Default                     : No
    Forced                      : No

  • Peso: 15.2 GiB

Sinopsis

La ciudad de Halloween centra todos sus esfuerzos en la noche del 31 de octubre, el día de los muertos, en el que monstruos, fantasmas, brujas y todo tipo de seres aterradores toman las calles. Desde el alcalde hasta el vampiro más humilde se esfuerzan por crear el mejor Halloween posible… pero Jack Skellington está un poco deprimido. El rey de Halloween, tras siglos haciendo lo mismo año tras año, está aburrido, busca algo nuevo, algo… diferente. Y lo encuentra en la ciudad de la Navidad; ahora Jack tiene un nuevo objetivo, algo que lo anima a ponerse a trabajar: ¡este año, la Navidad la organiza Halloween! Basado en el famoso film que confirmó el genio de Tim Burton, esta cuidada edición del manga de Pesadilla antes de Navidad incluye bocetos y páginas extras que harán las delicias de los fans de la película.

Ficha técnica

Video trailer de la película

Enlaces de descarga

Rip de Bluray

Descargar El extraño mundo de Jack (1993) REMUX 1080p Latino – CMHDD




Aportes de DPeliculasHDmega la pass es:dpeliculashdmega.org Aportes de CinemaniaHD la pass es:cinemaniahdd.com
Guardado en : Animación , Familia , Fantasía , Remux

Películas relacionadas

  • Zola (2020) REMUX 1080p Latino

    Zola (2020) REMUX 1080p Latino

    2020
    Zola (2020) REMUX 1080p Latino

    1h 26m 2020

    Descargar Zola (2020) REMUX 1080p Latino. Una camarera accede a acompañar a una bailarina exótica,...

    Director: Sheri Davani

    Género: Comedia

    Actores: Ts Madison

  • Hocus Pocus: Abracadabra (1993) 1080p Latino

    Hocus Pocus: Abracadabra (1993) 1080p Latino

    1993
    Hocus Pocus: Abracadabra (1993) 1080p Latino

    1h 36m 1993

    Descargar Hocus Pocus: Abracadabra (1993) 1080p Latino. Tres brujas del siglo XII son invocadas durante...

    Director: Kenny Ortega

    Género: Comedia

    Actores: Vinessa Shaw

  • Hocus Pocus: Abracadabra (1993) REMUX 1080p Latino

    Hocus Pocus: Abracadabra (1993) REMUX 1080p Latino

    1993
    Hocus Pocus: Abracadabra (1993) REMUX 1080p Latino

    1h 36m 1993

    Descargar Hocus Pocus: Abracadabra (1993) REMUX 1080p Latino. Tres brujas del siglo XII son invocadas...

    Director: Kenny Ortega

    Género: Comedia

    Actores: Vinessa Shaw

  • DC Liga De Supermascotas (2022) HD 1080p Latino

    DC Liga De Supermascotas (2022) HD 1080p Latino

    2022
    DC Liga De Supermascotas (2022) HD 1080p Latino

    1h 45m 2022

    Descargar DC Liga De Supermascotas (2022) HD 1080p Latino. Krypto el Superperro y Superman son amigos...

    Director: Sam Levine

    Género: Acción

    Actores: Yvette Nicole Brown

descargar El extraño mundo de Jack (1993) REMUX 1080p Latino – CMHDD Full 1080p 1080p gratis, El extraño mundo de Jack (1993) REMUX 1080p Latino – CMHDD Full 1080p mega 1 link, El extraño mundo de Jack (1993) REMUX 1080p Latino – CMHDD Full 1080p pelicula completa, descargar El extraño mundo de Jack (1993) REMUX 1080p Latino – CMHDD Full 1080p gratis en mega.

El extraño mundo de Jack (1993) REMUX 1080p Latino – CMHDD pelicula full hd, El extraño mundo de Jack (1993) REMUX 1080p Latino – CMHDD mega latino, El extraño mundo de Jack (1993) REMUX 1080p Latino – CMHDD 4k latino, El extraño mundo de Jack (1993) REMUX 1080p Latino – CMHDD pelicula completa, El extraño mundo de Jack (1993) REMUX 1080p Latino – CMHDD descargar gratis, descargar El extraño mundo de Jack (1993) REMUX 1080p Latino – CMHDD pelicula latino, El extraño mundo de Jack (1993) REMUX 1080p Latino – CMHDD 1 link mega, El extraño mundo de Jack (1993) REMUX 1080p Latino – CMHDD 1 link google drive, El extraño mundo de Jack (1993) REMUX 1080p Latino – CMHDD hd 1080p latino.
Comentarios 0