×

¿Problemas para descargar con Mozilla, EDGE? Deshabilita la opción "Abrir vinculos en una pestaña nueva" tal como lo muestra ésta imagen.

El extraño mundo de Jack (1993) HD 1080p Latino – CMHDD

456 vistas

Información de El extraño mundo de Jack (1993) HD 1080p Latino – CMHDD

Datos de la película

  • Calidad: Full 1080p
  • Audio: Español Latino AC3 5.1 BLURAY - Ingles AC3 5.1 BLURAY
  • Subtitulos: Español Latino SRT- FORZADOS SRT
  • Resolución: 1900x1078p
  • Formato: MKV
  • Codec: H.264
  • Encoder: Dracarys
  • Mediainfo: Clic para Mostrar Datos Ver
  • Format                      : Matroska
    Format version              : Version 4
    File size                   : 2.54 GiB
    Duration                    : 1 h 16 min
    Overall bit rate            : 4 742 kb/s
    Movie name                  : El extraño mundo de Jack (1993) HD 1080p Latino - CMHDD
    Encoded date                : UTC 2020-05-19 20:39:29
    Writing application         : mkvmerge v46.0.0 ('No Deeper Escape') 64-bit
    Writing library             : libebml v1.3.10 + libmatroska v1.5.2 / Lavf58.29.100

    Video
    ID                          : 1
    Format                      : AVC
    Format/Info                 : Advanced Video Codec
    Format profile              : High@L4.1
    Format settings             : CABAC / 4 Ref Frames
    Format settings, CABAC      : Yes
    Format settings, Reference  : 4 frames
    Codec ID                    : V_MPEG4/ISO/AVC
    Duration                    : 1 h 16 min
    Bit rate                    : 3 500 kb/s
    Width                       : 1 900 pixels
    Height                      : 1 078 pixels
    Display aspect ratio        : 16:9
    Frame rate mode             : Constant
    Frame rate                  : 23.976 (24000/1001) FPS
    Color space                 : YUV
    Chroma subsampling          : 4:2:0
    Bit depth                   : 8 bits
    Scan type                   : Progressive
    Bits/(Pixel*Frame)          : 0.071
    Stream size                 : 1.85 GiB (73%)
    Writing library             : x264 core 157 r2935 545de2f
    Encoding settings           : cabac=1 / ref=4 / deblock=1:0:0 / analyse=0x3:0x113 / me=hex / subme=8 / psy=1 / psy_rd=1.00:0.00 / mixed_ref=1 / me_range=16 / chroma_me=1 / trellis=2 / 8x8dct=1 / cqm=0 / deadzone=21,11 / fast_pskip=1 / chroma_qp_offset=-2 / threads=24 / lookahead_threads=4 / sliced_threads=0 / nr=0 / decimate=1 / interlaced=0 / bluray_compat=0 / constrained_intra=0 / bframes=3 / b_pyramid=2 / b_adapt=1 / b_bias=0 / direct=3 / weightb=1 / open_gop=0 / weightp=2 / keyint=240 / keyint_min=24 / scenecut=40 / intra_refresh=0 / rc_lookahead=50 / rc=abr / mbtree=1 / bitrate=3500 / ratetol=1.0 / qcomp=0.60 / qpmin=0 / qpmax=69 / qpstep=4 / vbv_maxrate=62500 / vbv_bufsize=78125 / nal_hrd=none / filler=0 / ip_ratio=1.40 / aq=1:1.00
    Default                     : Yes
    Forced                      : No
    Color range                 : Limited
    Color primaries             : BT.709
    Transfer characteristics    : BT.709
    Matrix coefficients         : BT.709

    Audio #1
    ID                          : 2
    Format                      : AC-3
    Format/Info                 : Audio Coding 3
    Commercial name             : Dolby Digital
    Codec ID                    : A_AC3
    Duration                    : 1 h 16 min
    Bit rate mode               : Constant
    Bit rate                    : 640 kb/s
    Channel(s)                  : 6 channels
    Channel layout              : L R C LFE Ls Rs
    Sampling rate               : 44.1 kHz
    Frame rate                  : 28.711 FPS (1536 SPF)
    Compression mode            : Lossy
    Stream size                 : 351 MiB (13%)
    Language                    : Spanish
    Service kind                : Complete Main
    Default                     : Yes
    Forced                      : No

    Audio #2
    ID                          : 3
    Format                      : AC-3
    Format/Info                 : Audio Coding 3
    Commercial name             : Dolby Digital
    Codec ID                    : A_AC3
    Duration                    : 1 h 16 min
    Bit rate mode               : Constant
    Bit rate                    : 640 kb/s
    Channel(s)                  : 6 channels
    Channel layout              : L R C LFE Ls Rs
    Sampling rate               : 48.0 kHz
    Frame rate                  : 31.250 FPS (1536 SPF)
    Compression mode            : Lossy
    Stream size                 : 351 MiB (13%)
    Language                    : English
    Service kind                : Complete Main
    Default                     : No
    Forced                      : No

    Text #1
    ID                          : 4
    Format                      : UTF-8
    Codec ID                    : S_TEXT/UTF8
    Codec ID/Info               : UTF-8 Plain Text
    Duration                    : 59 min 59 s
    Bit rate                    : 0 b/s
    Count of elements           : 15
    Stream size                 : 299 Bytes (0%)
    Title                       : SRT-Forzados
    Language                    : Spanish
    Default                     : Yes
    Forced                      : No

    Text #2
    ID                          : 5
    Format                      : UTF-8
    Codec ID                    : S_TEXT/UTF8
    Codec ID/Info               : UTF-8 Plain Text
    Duration                    : 1 h 10 min
    Bit rate                    : 62 b/s
    Count of elements           : 888
    Stream size                 : 32.6 KiB (0%)
    Title                       : SRT-Completos
    Default                     : No
    Forced                      : No

    Menu
    00:00:00.000                : :Chapter 1
    00:01:19.496                : :Chapter 2
    00:06:22.299                : :Chapter 3
    00:14:09.932                : :Chapter 4
    00:20:53.210                : :Chapter 5
    00:26:16.325                : :Chapter 6
    00:30:44.343                : :Chapter 7
    00:35:35.050                : :Chapter 8
    00:38:45.532                : :Chapter 9
    00:41:21.479                : :Chapter 10
    00:45:43.157                : :Chapter 11
    00:48:35.329                : :Chapter 12
    00:51:09.942                : :Chapter 13
    00:53:28.747                : :Chapter 14
    00:55:13.227                : :Chapter 15
    01:00:14.152                : :Chapter 16
    01:02:02.928                : :Chapter 17
    01:05:05.443                : :Chapter 18
    01:09:16.611                : :Chapter 19
    01:11:52.642                : :Chapter 20

  • Peso: 2.54 GiB

Sinopsis

La ciudad de Halloween centra todos sus esfuerzos en la noche del 31 de octubre, el día de los muertos, en el que monstruos, fantasmas, brujas y todo tipo de seres aterradores toman las calles. Desde el alcalde hasta el vampiro más humilde se esfuerzan por crear el mejor Halloween posible… pero Jack Skellington está un poco deprimido. El rey de Halloween, tras siglos haciendo lo mismo año tras año, está aburrido, busca algo nuevo, algo… diferente. Y lo encuentra en la ciudad de la Navidad; ahora Jack tiene un nuevo objetivo, algo que lo anima a ponerse a trabajar: ¡este año, la Navidad la organiza Halloween! Basado en el famoso film que confirmó el genio de Tim Burton, esta cuidada edición del manga de Pesadilla antes de Navidad incluye bocetos y páginas extras que harán las delicias de los fans de la película.

Ficha técnica

Video trailer de la película

Enlaces de descarga

Rip de Bluray

Descargar El extraño mundo de Jack (1993) HD 1080p Latino – CMHDD




Aportes de DPeliculasHDmega la pass es:dpeliculashdmega.org Aportes de CinemaniaHD la pass es:cinemaniahdd.com
Guardado en : Animación , Familia , Fantasía , HD 1080p

Películas relacionadas

descargar El extraño mundo de Jack (1993) HD 1080p Latino – CMHDD Full 1080p 1080p gratis, El extraño mundo de Jack (1993) HD 1080p Latino – CMHDD Full 1080p mega 1 link, El extraño mundo de Jack (1993) HD 1080p Latino – CMHDD Full 1080p pelicula completa, descargar El extraño mundo de Jack (1993) HD 1080p Latino – CMHDD Full 1080p gratis en mega.

El extraño mundo de Jack (1993) HD 1080p Latino – CMHDD pelicula full hd, El extraño mundo de Jack (1993) HD 1080p Latino – CMHDD mega latino, El extraño mundo de Jack (1993) HD 1080p Latino – CMHDD 4k latino, El extraño mundo de Jack (1993) HD 1080p Latino – CMHDD pelicula completa, El extraño mundo de Jack (1993) HD 1080p Latino – CMHDD descargar gratis, descargar El extraño mundo de Jack (1993) HD 1080p Latino – CMHDD pelicula latino, El extraño mundo de Jack (1993) HD 1080p Latino – CMHDD 1 link mega, El extraño mundo de Jack (1993) HD 1080p Latino – CMHDD 1 link google drive, El extraño mundo de Jack (1993) HD 1080p Latino – CMHDD hd 1080p latino.
Comentarios 0