El extraño (2016) 1080p Latino

2.139 vistas
1 estrella2 estrellas3 estrellas4 estrellas5 estrellas (3 votos, promedio: 3,00 de 5)
Cargando…

Información de El extraño (2016) 1080p Latino

Datos de la película

  • Calidad: 1080p
  • Audio: Se especifica abajo de la Sinopsis
  • Subtitulos: Español Latino SRT
  • Resolución: 1920x800p
  • Formato: MKV
  • Codec: H.264
  • Encoder: Dpelis
  • Mediainfo: Clic para Mostrar Datos Ver
  • The Wailing (2016) 1080p Latino.mkv
    Format                      : Matroska
    Format version              : Version 4 / Version 2
    File size                   : 4.45 GiB
    Duration                    : 2 h 36 min
    Overall bit rate            : 4 077 kb/s
    Movie name                  : DPeliculasHDMega.ORG
    Encoded date                : UTC 2017-09-23 16:11:08 / UTC 2017-09-23T14:19:00Z
    Writing application         : mkvmerge v10.0.0 ('To Drown In You') 64bit
    Writing library             : libebml v1.3.4 + libmatroska v1.4.5 / Lavf57.7.2

    Video
    ID                          : 1
    Format                      : AVC
    Format/Info                 : Advanced Video Codec
    Format profile              : [email protected]
    Format settings, CABAC      : Yes
    Format settings, RefFrames  : 4 frames
    Codec ID                    : V_MPEG4/ISO/AVC
    Duration                    : 2 h 36 min
    Bit rate                    : 3 500 kb/s
    Width                       : 1 920 pixels
    Height                      : 800 pixels
    Display aspect ratio        : 2.40:1
    Frame rate mode             : Constant
    Frame rate                  : 24.000 FPS
    Color space                 : YUV
    Chroma subsampling          : 4:2:0
    Bit depth                   : 8 bits
    Scan type                   : Progressive
    Bits/(Pixel*Frame)          : 0.095
    Stream size                 : 3.73 GiB (84%)
    Writing library             : x264 core 148 r2708 86b7198
    Encoding settings           : cabac=1 / ref=3 / deblock=1:0:0 / analyse=0x3:0x113 / me=hex / subme=7 / psy=1 / psy_rd=1.00:0.00 / mixed_ref=1 / me_range=16 / chroma_me=1 / trellis=1 / 8x8dct=1 / cqm=0 / deadzone=21,11 / fast_pskip=1 / chroma_qp_offset=-2 / threads=12 / lookahead_threads=2 / sliced_threads=0 / nr=0 / decimate=1 / interlaced=0 / bluray_compat=0 / constrained_intra=0 / bframes=3 / b_pyramid=2 / b_adapt=1 / b_bias=0 / direct=1 / weightb=1 / open_gop=0 / weightp=2 / keyint=240 / keyint_min=24 / scenecut=40 / intra_refresh=0 / rc_lookahead=40 / rc=2pass / mbtree=1 / bitrate=3500 / ratetol=1.0 / qcomp=0.60 / qpmin=0 / qpmax=69 / qpstep=4 / cplxblur=20.0 / qblur=0.5 / vbv_maxrate=62500 / vbv_bufsize=78125 / nal_hrd=none / filler=0 / ip_ratio=1.40 / aq=1:1.00
    Default                     : Yes
    Forced                      : No
    Color range                 : Limited
    Color primaries             : BT.709
    Transfer characteristics    : BT.709
    Matrix coefficients         : BT.709
    Statistics Tags Issue       : mkvmerge v10.0.0 ('To Drown In You') 64bit 2017-09-23 16:11:08 / mkvmerge v10.0.0 ('To Drown In You') 64bit 2017-09-23 16:11:08 / UTC 2017-09-23T14:19:00Z
    FromStats_BitRate           : 3498446
    FromStats_Duration          : 02:36:08.250000000
    FromStats_FrameCount        : 224838
    FromStats_StreamSize        : 4096790348

    Audio #1
    ID                          : 2
    Format                      : AC-3
    Format/Info                 : Audio Coding 3
    Format settings, Endianness : Big
    Codec ID                    : A_AC3
    Duration                    : 2 h 36 min
    Bit rate mode               : Constant
    Bit rate                    : 192 kb/s
    Channel(s)                  : 2 channels
    Channel positions           : Front: L R
    Sampling rate               : 48.0 kHz
    Frame rate                  : 31.250 FPS (1536 SPF)
    Bit depth                   : 16 bits
    Compression mode            : Lossy
    Delay relative to video     : -5 ms
    Stream size                 : 214 MiB (5%)
    Language                    : Spanish
    Service kind                : Complete Main
    Default                     : Yes
    Forced                      : No
    Statistics Tags Issue       : mkvmerge v10.0.0 ('To Drown In You') 64bit 2017-09-23 16:11:08 / mkvmerge v10.0.0 ('To Drown In You') 64bit 2017-09-23 16:11:08 / UTC 2017-09-23T14:19:00Z
    FromStats_BitRate           : 192000
    FromStats_Duration          : 02:36:06.080000000
    FromStats_FrameCount        : 292690
    FromStats_StreamSize        : 224785920

    Audio #2
    ID                          : 3
    Format                      : AC-3
    Format/Info                 : Audio Coding 3
    Format settings, Endianness : Big
    Codec ID                    : A_AC3
    Duration                    : 2 h 36 min
    Bit rate mode               : Constant
    Bit rate                    : 384 kb/s
    Channel(s)                  : 6 channels
    Channel positions           : Front: L C R, Side: L R, LFE
    Sampling rate               : 48.0 kHz
    Frame rate                  : 31.250 FPS (1536 SPF)
    Bit depth                   : 16 bits
    Compression mode            : Lossy
    Delay relative to video     : -5 ms
    Stream size                 : 429 MiB (9%)
    Title                       : Surround
    Language                    : Korean
    Service kind                : Complete Main
    Default                     : No
    Forced                      : No
    Statistics Tags Issue       : mkvmerge v10.0.0 ('To Drown In You') 64bit 2017-09-23 16:11:08 / mkvmerge v10.0.0 ('To Drown In You') 64bit 2017-09-23 16:11:08 / UTC 2017-09-23T14:19:00Z
    FromStats_BitRate           : 384000
    FromStats_Duration          : 02:36:08.224000000
    FromStats_FrameCount        : 292757
    FromStats_StreamSize        : 449674752

    Text
    ID                          : 4
    Format                      : UTF-8
    Codec ID                    : S_TEXT/UTF8
    Codec ID/Info               : UTF-8 Plain Text
    Language                    : Spanish
    Default                     : Yes
    Forced                      : No
    Statistics Tags Issue       : mkvmerge v10.0.0 ('To Drown In You') 64bit 2017-09-23 16:11:08 / mkvmerge v10.0.0 ('To Drown In You') 64bit 2017-09-23 16:11:08 / UTC 2017-09-23T14:19:00Z
    FromStats_BitRate           : 28
    FromStats_Duration          : 02:27:48.384000000
    FromStats_FrameCount        : 1186
    FromStats_StreamSize        : 32065

    Menu
    00:00:00.000                : :00:00:00.000
    00:09:28.333                : :00:09:28.125
    00:18:42.250                : :00:18:42.167
    00:26:49.667                : :00:26:49.458
    00:33:19.333                : :00:33:19.250
    00:42:51.250                : :00:42:51.125
    00:48:58.708                : :00:48:58.500
    00:57:56.500                : :00:57:56.458
    01:03:33.125                : :01:03:32.958
    01:12:30.917                : :01:12:30.917
    01:22:24.333                : :01:22:24.125
    01:29:02.125                : :01:29:01.958
    01:38:09.750                : :01:38:09.542
    01:43:00.000                : :01:42:59.875
    01:52:19.667                : :01:52:19.667
    01:58:12.542                : :01:58:12.333
    02:06:58.250                : :02:06:58.125
    02:13:59.125                : :02:13:58.917
    02:21:53.542                : :02:21:53.542
    02:30:45.292                : :02:30:45.083

  • Peso: 4.45 GB

Sinopsis

La vida de un pueblo coreano es trastornada por una serie de asesinatos, salvajes y misteriosos, que azota por casualidad a la pequeña comunidad rural. Los rumores y las supersticiones se propagan a causa de la presencia, desde hace poco tiempo, de un anciano extranjero que vive como un ermita. Ante la incompetencia de la policía para encontrar al asesino y sin tener una explicación racional, algunos habitantes del pueblo buscan a un chamán. Jong-gu, un policía cuya familia está directamente amenazada, también cree que se trata de crímenes sobrenaturales…

 

Español Latino AC3 2.0 -Koreano AC3 5.1 

Ficha técnica

  • Titulo original: 곡성
  • Fecha de lanzamiento: 12-05-2016 (South Korea)
  • Director: Na Hong-jin
  • Género: Misterio, Terror
  • Puntuación: 3.0 3 votos
  • Duración:
    2h 36m

Video trailer de la película

Enlaces de descarga

Rip de Bluray

Descargar El extraño (2016) 1080p Latino




Aportes de DPeliculasHDmega la pass es:dpeliculashdmega.org Aportes de CinemaniaHD la pass es:cinemaniahdd.com
Guardado en : Misterio , Terror

Películas relacionadas

  • Diablero (2018) Temporada 1 NF 1080p Español Latino

    2018
    Diablero (2018) Temporada 1 NF 1080p Español Latino

    0.0 0h 38m 2018

    Diablero sigue la historia del padre Ramiro Ventura, un sacerdote que precisa de la ayuda del legendario...

    Director: Pablo Tébar

    Género: Misterio

    Actores: Horacio Garcia Rojas

  • Halloween (2018) Full 1080p Latino

    2018
    Halloween (2018) Full 1080p Latino

    4.8 2h 0m 2018

    Descargar Halloween (2018) Full 1080p Latino, Mega, Google Drive, Torrent. Jamie Lee Curtis regresa a...

    Director: David Gordon Green

    Género: FULL 1080p Plateadas

    Actores: Willie Tyrone Ferguson

  • Frenzy (2018) 1080p Subtitulado

    2018
    Frenzy (2018) 1080p Subtitulado

    0.0 1h 25m 2018

    Descargar Frenzy (2018) 1080p Subtitulado, Mega, Google Drive, Torrent. Paige (Gina Vitori) invita a...

    Director: Jose Montesinos

    Género: HD 1080p

    Actores: Taylor Jorgensen

Comentarios 2
  • Álvaro Argumedo - 16 octubre, 2017

    Muchas gracias por el aporte, como siempre excelente calidad en audio e imagen. La película deja mucho que desear a mi parecer. Tenía más expectativas. Los personajes y el guión muy flojos y tontos, escenas poco creíbles, Y para colmo más de dos horas. Desesperante.

  • piero - 24 septiembre, 2017

    muchas gracias por esta pelicula es muy buena a mi parecer y mejor aun en latino …saludos