El exterminador (2016) 1080p Latino

2.311 vistas
1 estrella2 estrellas3 estrellas4 estrellas5 estrellas (Ninguna valoración todavía)
Cargando…

Información de El exterminador (2016) 1080p Latino

Datos de la película

  • Calidad: 1080p
  • Audio: Se especifica abajo de la Sinopsis
  • Subtitulos: Español Latino PGS
  • Resolución: 1920x802p
  • Formato: MKV
  • Codec: H.264
  • Encoder: Dpelis
  • Mediainfo: Clic para Mostrar Datos Ver
  • Incarnate (2017) 1080p Latino.mkv
    Format                      : Matroska
    Format version              : Version 4 / Version 2
    File size                   : 2.40 GiB
    Duration                    : 1 h 26 min
    Overall bit rate            : 3 993 kb/s
    Movie name                  : DPeliculasHDMega.ORG
    Encoded date                : UTC 2017-08-19 11:37:54 / UTC 2017-08-19T04:56:34Z
    Writing application         : mkvmerge v10.0.0 ('To Drown In You') 64bit
    Writing library             : libebml v1.3.4 + libmatroska v1.4.5 / Lavf57.7.2

    Video
    ID                          : 1
    Format                      : AVC
    Format/Info                 : Advanced Video Codec
    Format profile              : High@L4.1
    Format settings, CABAC      : Yes
    Format settings, ReFrames   : 4 frames
    Codec ID                    : V_MPEG4/ISO/AVC
    Duration                    : 1 h 26 min
    Bit rate                    : 3 274 kb/s
    Nominal bit rate            : 3 500 kb/s
    Width                       : 1 920 pixels
    Height                      : 802 pixels
    Display aspect ratio        : 2.40:1
    Frame rate mode             : Constant
    Frame rate                  : 23.976 (24000/1001) FPS
    Color space                 : YUV
    Chroma subsampling          : 4:2:0
    Bit depth                   : 8 bits
    Scan type                   : Progressive
    Bits/(Pixel*Frame)          : 0.089
    Stream size                 : 1.97 GiB (82%)
    Writing library             : x264 core 148 r2708 86b7198
    Encoding settings           : cabac=1 / ref=3 / deblock=1:0:0 / analyse=0x3:0x113 / me=hex / subme=7 / psy=1 / psy_rd=1.00:0.00 / mixed_ref=1 / me_range=16 / chroma_me=1 / trellis=1 / 8x8dct=1 / cqm=0 / deadzone=21,11 / fast_pskip=1 / chroma_qp_offset=-2 / threads=12 / lookahead_threads=2 / sliced_threads=0 / nr=0 / decimate=1 / interlaced=0 / bluray_compat=0 / constrained_intra=0 / bframes=3 / b_pyramid=2 / b_adapt=1 / b_bias=0 / direct=1 / weightb=1 / open_gop=0 / weightp=2 / keyint=240 / keyint_min=24 / scenecut=40 / intra_refresh=0 / rc_lookahead=40 / rc=abr / mbtree=1 / bitrate=3500 / ratetol=1.0 / qcomp=0.60 / qpmin=0 / qpmax=69 / qpstep=4 / vbv_maxrate=62500 / vbv_bufsize=78125 / nal_hrd=none / filler=0 / ip_ratio=1.40 / aq=1:1.00
    Default                     : Yes
    Forced                      : No
    Color range                 : Limited
    Color primaries             : BT.709
    Transfer characteristics    : BT.709
    Matrix coefficients         : BT.709
    Statistics Tags Issue       : mkvmerge v10.0.0 ('To Drown In You') 64bit 2017-08-19 11:37:54 / mkvmerge v10.0.0 ('To Drown In You') 64bit 2017-08-19 11:37:54 / UTC 2017-08-19T04:56:34Z
    FromStats_BitRate           : 3346312
    FromStats_Duration          : 01:26:10.541000000
    FromStats_FrameCount        : 123969
    FromStats_StreamSize        : 2162780844

    Audio #1
    ID                          : 2
    Format                      : AC-3
    Format/Info                 : Audio Coding 3
    Format settings, Endianness : Big
    Codec ID                    : A_AC3
    Duration                    : 1 h 26 min
    Bit rate mode               : Constant
    Bit rate                    : 256 kb/s
    Channel(s)                  : 2 channels
    Channel positions           : Front: L R
    Sampling rate               : 48.0 kHz
    Frame rate                  : 31.250 FPS (1536 spf)
    Bit depth                   : 16 bits
    Compression mode            : Lossy
    Delay relative to video     : -5 ms
    Stream size                 : 158 MiB (6%)
    Title                       : Stereo
    Language                    : Spanish
    Service kind                : Complete Main
    Default                     : Yes
    Forced                      : No
    Statistics Tags Issue       : mkvmerge v10.0.0 ('To Drown In You') 64bit 2017-08-19 11:37:54 / mkvmerge v10.0.0 ('To Drown In You') 64bit 2017-08-19 11:37:54 / UTC 2017-08-19T04:56:34Z
    FromStats_BitRate           : 256000
    FromStats_Duration          : 01:26:10.528000000
    FromStats_FrameCount        : 161579
    FromStats_StreamSize        : 165456896

    Audio #2
    ID                          : 3
    Format                      : AC-3
    Format/Info                 : Audio Coding 3
    Format settings, Endianness : Big
    Codec ID                    : A_AC3
    Duration                    : 1 h 26 min
    Bit rate mode               : Constant
    Bit rate                    : 384 kb/s
    Channel(s)                  : 6 channels
    Channel positions           : Front: L C R, Side: L R, LFE
    Sampling rate               : 48.0 kHz
    Frame rate                  : 31.250 FPS (1536 spf)
    Bit depth                   : 16 bits
    Compression mode            : Lossy
    Delay relative to video     : -5 ms
    Stream size                 : 237 MiB (10%)
    Title                       : Surround
    Language                    : English
    Service kind                : Complete Main
    Default                     : No
    Forced                      : No
    Statistics Tags Issue       : mkvmerge v10.0.0 ('To Drown In You') 64bit 2017-08-19 11:37:54 / mkvmerge v10.0.0 ('To Drown In You') 64bit 2017-08-19 11:37:54 / UTC 2017-08-19T04:56:34Z
    FromStats_BitRate           : 384000
    FromStats_Duration          : 01:26:10.528000000
    FromStats_FrameCount        : 161579
    FromStats_StreamSize        : 248185344

    Text
    ID                          : 4
    Format                      : PGS
    Muxing mode                 : zlib
    Codec ID                    : S_HDMV/PGS
    Codec ID/Info               : Picture based subtitle format used on BDs/HD-DVDs
    Language                    : Spanish
    Default                     : No
    Forced                      : No
    Statistics Tags Issue       : mkvmerge v10.0.0 ('To Drown In You') 64bit 2017-08-19 11:37:54 / mkvmerge v10.0.0 ('To Drown In You') 64bit 2017-08-19 11:37:54 / UTC 2017-08-19T04:56:34Z
    FromStats_BitRate           : 5456
    FromStats_Duration          : 01:17:34.696000000
    FromStats_FrameCount        : 2068
    FromStats_StreamSize        : 3174862

    Menu
    00:00:00.000                : :Chapter 1
    00:06:08.910                : :Chapter 2
    00:10:42.892                : :Chapter 3
    00:14:44.467                : :Chapter 4
    00:18:01.581                : :Chapter 5
    00:22:12.790                : :Chapter 6
    00:26:04.480                : :Chapter 7
    00:29:52.708                : :Chapter 8
    00:35:28.293                : :Chapter 9
    00:40:51.449                : :Chapter 10
    00:45:05.620                : :Chapter 11
    00:49:24.962                : :Chapter 12
    00:52:59.468                : :Chapter 13
    00:56:32.306                : :Chapter 14
    01:01:35.692                : :Chapter 15
    01:06:31.362                : :Chapter 16
    01:11:10.683                : :Chapter 17
    01:18:54.730                : :Chapter 18

  • Peso: 2.40 GB

Sinopsis

Un científico con la capacidad de entrar en las subconscientes mentes de los poseídos debe salvar a un niño de las garras de un demonio con poderes nunca antes visto, mientras se enfrenta a los horrores de su pasado.

 

Español Latino AC3 2.0 – Ingles AC3 5.1

Ficha técnica

Video trailer de la película

Enlaces de descarga

Rip de Bluray

Descargar El exterminador (2016) 1080p Latino




Aportes de DPeliculasHDmega la pass es:dpeliculashdmega.org Aportes de CinemaniaHD la pass es:cinemaniahdd.com
Guardado en : Suspense , Terror

Películas relacionadas

  • Cam (2018) NF 1080p Latino

    2018
    Cam (2018) NF 1080p Latino

    0.0 1h 34m 2018

    Alice es una camgirl con un código inamovible, que le permite mantener una cierta distancia con los...

    Director: Rachel Penner

    Género: Suspense

    Actores: Samantha Robinson

  • El Justiciero 2 (2018) Full 1080p Latino

    2018
    El Justiciero 2 (2018) Full 1080p Latino

    5.0 2h 0m 2018

    Descargar El Justiciero 2 (2018) Full 1080p Latino, Mega, Google Drive. Robert McCall (Denzel Washington)...

    Director: Donald Sparks

    Género: Acción

    Actores: Wesley Pereira

  • El Justiciero 2 (2018) 1080p Latino

    2018
    El Justiciero 2 (2018) 1080p Latino

    2.5 2h 0m 2018

    Descargar El Justiciero 2 (2018) 1080p Latino, Mega, Google Drive. Robert McCall (Denzel Washington)...

    Director: Donald Sparks

    Género: Acción

    Actores: Wesley Pereira

Comentarios 3
  • slash - 20 agosto, 2017

    Dejo subtítulo srt para el que lo necesite, saludos.

    https://mega.nz/#!wtMyXbhQ!di_8OaFQMWUHqgyvn0GOUXU_UTiTmxrMLIre84FHnIs

    • Brian - 20 agosto, 2017

      Muy amable, justo lo iba a pedir, ya que siempre lo ponen dentro o por fuera del mkv. saludos

    • Eduardo Garza - 21 agosto, 2017

      Muchas gracias!! Ahora si a disfrutar de esta película!! 🙂
      ((Todavia no la veo, pero checando el subtitulo, lo adelanté medio segundo y quedó perfecto)

      Saludos!! y muchas gracias CinemaniaHD!!