×

¿Problemas para descargar con Mozilla, EDGE? Deshabilita la opción "Abrir vinculos en una pestaña nueva" tal como lo muestra ésta imagen.

El Exorcismo De Dios (2021) REMUX 1080p Latino

366 vistas

Información de El Exorcismo De Dios (2021) REMUX 1080p Latino

Datos de la película

  • Calidad: Full 1080p
  • Audio: Español Latino AC3 5.1 WEB-DL - Ingles DTS 5.1 BLURAY
  • Subtitulos: Español Latino PGS - Ingles PGS
  • Resolución: 1920x1080p
  • Formato: MKV
  • Codec: H.264
  • Encoder: Melkor
  • Mediainfo: Clic para Mostrar Datos Ver
  • El Exorcismo De Dios (2021) REMUX 1080p Latino.mkv
    Format                      : Matroska
    Format version              : Version 4
    File size                   : 25.8 GiB
    Duration                    : 1 h 38 min
    Overall bit rate mode       : Variable
    Overall bit rate            : 37.3 Mb/s
    Movie name                  : The Exorcism of God (2021) CinemaniaHDD.Net
    Encoded date                : UTC 2022-05-11 06:14:39
    Writing application         : mkvmerge v56.1.0 ('My Friend') 64-bit
    Writing library             : libebml v1.4.2 + libmatroska v1.6.4
    Attachments                 : CINEMANIAHD.png

    Video
    ID                          : 1
    ID in the original source m : 4113 (0x1011)
    Format                      : AVC
    Format/Info                 : Advanced Video Codec
    Format profile              : High@L4.1
    Format settings             : CABAC / 4 Ref Frames
    Format settings, CABAC      : Yes
    Format settings, Reference  : 4 frames
    Codec ID                    : V_MPEG4/ISO/AVC
    Duration                    : 1 h 38 min
    Bit rate mode               : Variable
    Bit rate                    : 33.4 Mb/s
    Maximum bit rate            : 37.0 Mb/s
    Width                       : 1 920 pixels
    Height                      : 1 080 pixels
    Display aspect ratio        : 16:9
    Frame rate mode             : Constant
    Frame rate                  : 23.976 (24000/1001) FPS
    Color space                 : YUV
    Chroma subsampling          : 4:2:0
    Bit depth                   : 8 bits
    Scan type                   : Progressive
    Bits/(Pixel*Frame)          : 0.672
    Stream size                 : 23.1 GiB (90%)
    Title                       : REMUX HD1080p [CinemaniaHDD]
    Default                     : Yes
    Forced                      : Yes
    Original source medium      : Blu-ray

    Audio #1
    ID                          : 2
    Format                      : AC-3
    Format/Info                 : Audio Coding 3
    Commercial name             : Dolby Digital
    Codec ID                    : A_AC3
    Duration                    : 1 h 38 min
    Bit rate mode               : Constant
    Bit rate                    : 448 kb/s
    Channel(s)                  : 6 channels
    Channel layout              : L R C LFE Ls Rs
    Sampling rate               : 48.0 kHz
    Frame rate                  : 31.250 FPS (1536 SPF)
    Compression mode            : Lossy
    Stream size                 : 317 MiB (1%)
    Title                       : Español Latino [CinemaniaHDD]
    Language                    : Spanish
    Service kind                : Complete Main
    Default                     : Yes
    Forced                      : Yes

    Audio #2
    ID                          : 3
    ID in the original source m : 4352 (0x1100)
    Format                      : DTS XLL
    Format/Info                 : Digital Theater Systems
    Commercial name             : DTS-HD Master Audio
    Codec ID                    : A_DTS
    Duration                    : 1 h 38 min
    Bit rate mode               : Variable
    Bit rate                    : 3 406 kb/s
    Channel(s)                  : 6 channels
    Channel layout              : C L R Ls Rs LFE
    Sampling rate               : 48.0 kHz
    Frame rate                  : 93.750 FPS (512 SPF)
    Bit depth                   : 24 bits
    Compression mode            : Lossless
    Stream size                 : 2.35 GiB (9%)
    Title                       : Ingles [CinemaniaHDD]
    Language                    : English
    Default                     : No
    Forced                      : No
    Original source medium      : Blu-ray

    Text #1
    ID                          : 4
    ID in the original source m : 4609 (0x1201)
    Format                      : PGS
    Muxing mode                 : zlib
    Codec ID                    : S_HDMV/PGS
    Codec ID/Info               : Picture based subtitle format used on BDs/HD-DVDs
    Duration                    : 1 h 36 min
    Bit rate                    : 16.9 kb/s
    Count of elements           : 1352
    Stream size                 : 11.7 MiB (0%)
    Title                       : Español-PGS [CinemaniaHDD]
    Language                    : Spanish
    Default                     : No
    Forced                      : No
    Original source medium      : Blu-ray

    Text #2
    ID                          : 5
    ID in the original source m : 4608 (0x1200)
    Format                      : PGS
    Muxing mode                 : zlib
    Codec ID                    : S_HDMV/PGS
    Codec ID/Info               : Picture based subtitle format used on BDs/HD-DVDs
    Duration                    : 1 h 37 min
    Bit rate                    : 19.6 kb/s
    Count of elements           : 1784
    Stream size                 : 13.7 MiB (0%)
    Title                       : Ingles-PGS [CinemaniaHDD]
    Language                    : English
    Default                     : No
    Forced                      : No
    Original source medium      : Blu-ray

    Text #3
    ID                          : 6
    Format                      : UTF-8
    Codec ID                    : S_TEXT/UTF8
    Codec ID/Info               : UTF-8 Plain Text
    Duration                    : 1 h 36 min
    Bit rate                    : 0 b/s
    Count of elements           : 9
    Stream size                 : 284 Bytes (0%)
    Title                       : Forzados-SRT [CinemaniaHDD]
    Language                    : Spanish
    Default                     : Yes
    Forced                      : Yes

    Text #4
    ID                          : 7
    Format                      : UTF-8
    Codec ID                    : S_TEXT/UTF8
    Codec ID/Info               : UTF-8 Plain Text
    Duration                    : 1 h 36 min
    Bit rate                    : 23 b/s
    Count of elements           : 561
    Stream size                 : 16.3 KiB (0%)
    Title                       : Español-SRT [CinemaniaHDD]
    Language                    : Spanish
    Default                     : No
    Forced                      : No

    Menu
    00:00:00.000                : Chapter 01
    00:04:08.248                : Chapter 02
    00:11:31.816                : Chapter 03
    00:16:29.780                : Chapter 04
    00:21:28.954                : Chapter 05
    00:26:20.161                : Chapter 06
    00:31:52.118                : Chapter 07
    00:37:32.166                : Chapter 08
    00:42:09.109                : Chapter 09
    00:48:23.775                : Chapter 10
    00:54:03.782                : Chapter 11
    00:59:48.001                : Chapter 12
    01:04:36.414                : Chapter 13
    01:12:55.204                : Chapter 14
    01:19:05.240                : Chapter 15
    01:26:51.831                : Chapter 16

  • Peso: 25.8 GiB

Sinopsis

Descargar El Exorcismo De Dios (2021) REMUX 1080p Latino. Un sacerdote estadounidense que trabaja en México es considerado un santo por muchos feligreses locales. Sin embargo, debido a un exorcismo fallido, guarda un secreto que lo está comiendo vivo hasta que tenga la oportunidad de enfrentarse a su demonio por última vez.

Ficha técnica

  • Titulo original: The Exorcism of God
  • Fecha de lanzamiento: 10-02-2022 (Mexico, United States of America, Venezuela)
  • Director: Alejandro Hidalgo
  • Género: Remux, Terror

Video trailer de la película

Enlaces de descarga

Rip de Bluray

Descargar El Exorcismo De Dios (2021) REMUX 1080p Latino




Aportes de DPeliculasHDmega la pass es:dpeliculashdmega.org Aportes de CinemaniaHD la pass es:cinemaniahdd.com
Guardado en : Remux , Terror

Películas relacionadas

  • Super… ¿quién? (2021) REMUX 1080p Latino

    Super… ¿quién? (2021) REMUX 1080p Latino

    2022
    Super… ¿quién? (2021) REMUX 1080p Latino

    1h 22m 2022

    Descargar Super... ¿quién? (2021) REMUX 1080p Latino. Cedric (Philippe Lacheau) intenta ganarse la...

    Director: Philippe Lacheau

    Género: Acción

    Actores: Yves Yan

  • Observada (2022) HD 1080p Latino

    Observada (2022) HD 1080p Latino

    2022
    Observada (2022) HD 1080p Latino

    1h 35m 2022

    Descargar Observada (2022) HD 1080p Latino. Una joven se muda a un nuevo apartamento con su prometido...

    Director: Chloe Okuno

    Género: HD 1080p

    Actores: Tudor Petruț

  • Observada (2022) PLACEBO Full HD 1080p Latino

    Observada (2022) PLACEBO Full HD 1080p Latino

    2022
    Observada (2022) PLACEBO Full HD 1080p Latino

    1h 35m 2022

    Descargar Observada (2022) PLACEBO Full HD 1080p Latino. Una joven se muda a un nuevo apartamento con...

    Director: Chloe Okuno

    Género: FULL 1080p Plateadas

    Actores: Tudor Petruț

  • Observada (2022) REMUX 1080p Latino

    Observada (2022) REMUX 1080p Latino

    2022
    Observada (2022) REMUX 1080p Latino

    1h 35m 2022

    Descargar Observada (2022) REMUX 1080p Latino. Una joven se muda a un nuevo apartamento con su prometido...

    Director: Chloe Okuno

    Género: Misterio

    Actores: Tudor Petruț

  • Pasaje Al Paraiso (2022) REMUX 1080p Latino

    Pasaje Al Paraiso (2022) REMUX 1080p Latino

    2022
    Pasaje Al Paraiso (2022) REMUX 1080p Latino

    1h 44m 2022

    Descargar Pasaje Al Paraiso (2022) REMUX 1080p Latino. Una pareja divorciada se une y viaja a Bali para...

    Director: Ol Parker

    Género: Comedia

    Actores: Rowan Chapman

descargar El Exorcismo De Dios (2021) REMUX 1080p Latino Full 1080p 1080p gratis, El Exorcismo De Dios (2021) REMUX 1080p Latino Full 1080p mega 1 link, El Exorcismo De Dios (2021) REMUX 1080p Latino Full 1080p pelicula completa, descargar El Exorcismo De Dios (2021) REMUX 1080p Latino Full 1080p gratis en mega.

El Exorcismo De Dios (2021) REMUX 1080p Latino pelicula full hd, El Exorcismo De Dios (2021) REMUX 1080p Latino mega latino, El Exorcismo De Dios (2021) REMUX 1080p Latino 4k latino, El Exorcismo De Dios (2021) REMUX 1080p Latino pelicula completa, El Exorcismo De Dios (2021) REMUX 1080p Latino descargar gratis, descargar El Exorcismo De Dios (2021) REMUX 1080p Latino pelicula latino, El Exorcismo De Dios (2021) REMUX 1080p Latino 1 link mega, El Exorcismo De Dios (2021) REMUX 1080p Latino 1 link google drive, El Exorcismo De Dios (2021) REMUX 1080p Latino hd 1080p latino.
Comentarios 0