×

¿Problemas para descargar con Mozilla, EDGE? Deshabilita la opción "Abrir vinculos en una pestaña nueva" tal como lo muestra ésta imagen.

El Exorcismo De Dios (2021) PLACEBO Full HD 1080p Latino

784 vistas

Información de El Exorcismo De Dios (2021) PLACEBO Full HD 1080p Latino

Datos de la película

  • Calidad: Full 1080p
  • Audio: Español Latino AC3 5.1 WEB-DL - Ingles DTS 5.1 BLURAY
  • Subtitulos: Español Latino PGS - Ingles PGS
  • Resolución: 1920x1080p
  • Formato: MKV
  • Codec: H.264
  • Encoder: MElkor
  • Mediainfo: Clic para Mostrar Datos Ver
  • El Exorcismo De Dios (2021) PLACEBO 1080p Latino.mkv
    Format                      : Matroska
    Format version              : Version 4
    File size                   : 3.27 GiB
    Duration                    : 1 h 38 min
    Overall bit rate            : 4 736 kb/s
    Movie name                  : The Exorcism of God (2021) CinemaniaHDD.Net
    Encoded date                : UTC 2022-05-12 06:31:22
    Writing application         : mkvmerge v56.1.0 ('My Friend') 64-bit
    Writing library             : libebml v1.4.2 + libmatroska v1.6.4
    Attachments                 : CINEMANIAHD.png

    Video
    ID                          : 1
    Format                      : AVC
    Format/Info                 : Advanced Video Codec
    Format profile              : High@L4.1
    Format settings             : CABAC / 4 Ref Frames
    Format settings, CABAC      : Yes
    Format settings, Reference  : 4 frames
    Codec ID                    : V_MPEG4/ISO/AVC
    Duration                    : 1 h 38 min
    Bit rate                    : 2 758 kb/s
    Width                       : 1 920 pixels
    Height                      : 1 080 pixels
    Display aspect ratio        : 16:9
    Frame rate mode             : Constant
    Frame rate                  : 23.976 (24000/1001) FPS
    Color space                 : YUV
    Chroma subsampling          : 4:2:0
    Bit depth                   : 8 bits
    Scan type                   : Progressive
    Bits/(Pixel*Frame)          : 0.055
    Stream size                 : 1.91 GiB (58%)
    Title                       : Full HD1080p [CinemaniaHDD]
    Writing library             : x264 core 163 r3059 b684ebe0
    Encoding settings           : cabac=1 / ref=4 / deblock=1:0:0 / analyse=0x3:0x133 / me=tesa / subme=11 / psy=1 / psy_rd=1.00:0.00 / mixed_ref=1 / me_range=24 / chroma_me=1 / trellis=2 / 8x8dct=1 / cqm=0 / deadzone=21,11 / fast_pskip=0 / chroma_qp_offset=-2 / threads=24 / lookahead_threads=6 / sliced_threads=0 / nr=0 / decimate=1 / interlaced=0 / bluray_compat=0 / constrained_intra=0 / bframes=16 / b_pyramid=2 / b_adapt=2 / b_bias=0 / direct=3 / weightb=1 / open_gop=0 / weightp=2 / keyint=240 / keyint_min=24 / scenecut=40 / intra_refresh=0 / rc_lookahead=60 / rc=crf / mbtree=1 / crf=18.0 / qcomp=0.60 / qpmin=0 / qpmax=69 / qpstep=4 / vbv_maxrate=62500 / vbv_bufsize=78125 / crf_max=0.0 / nal_hrd=none / filler=0 / ip_ratio=1.40 / aq=1:1.00
    Default                     : Yes
    Forced                      : Yes
    Color range                 : Limited
    Color primaries             : BT.709
    Transfer characteristics    : BT.709
    Matrix coefficients         : BT.709

    Audio #1
    ID                          : 2
    Format                      : AC-3
    Format/Info                 : Audio Coding 3
    Commercial name             : Dolby Digital
    Codec ID                    : A_AC3
    Duration                    : 1 h 38 min
    Bit rate mode               : Constant
    Bit rate                    : 448 kb/s
    Channel(s)                  : 6 channels
    Channel layout              : L R C LFE Ls Rs
    Sampling rate               : 48.0 kHz
    Frame rate                  : 31.250 FPS (1536 SPF)
    Compression mode            : Lossy
    Stream size                 : 317 MiB (9%)
    Title                       : Español Latino [CinemaniaHDD]
    Language                    : Spanish
    Service kind                : Complete Main
    Default                     : Yes
    Forced                      : Yes

    Audio #2
    ID                          : 3
    Format                      : DTS
    Format/Info                 : Digital Theater Systems
    Codec ID                    : A_DTS
    Duration                    : 1 h 38 min
    Bit rate mode               : Constant
    Bit rate                    : 1 509 kb/s
    Channel(s)                  : 6 channels
    Channel layout              : C L R Ls Rs LFE
    Sampling rate               : 48.0 kHz
    Frame rate                  : 93.750 FPS (512 SPF)
    Bit depth                   : 24 bits
    Compression mode            : Lossy
    Stream size                 : 1.04 GiB (32%)
    Title                       : Ingles [CinemaniaHDD]
    Language                    : English
    Default                     : No
    Forced                      : No

    Text #1
    ID                          : 4
    ID in the original source m : 4609 (0x1201)
    Format                      : PGS
    Muxing mode                 : zlib
    Codec ID                    : S_HDMV/PGS
    Codec ID/Info               : Picture based subtitle format used on BDs/HD-DVDs
    Duration                    : 1 h 36 min
    Bit rate                    : 16.9 kb/s
    Count of elements           : 1352
    Stream size                 : 11.7 MiB (0%)
    Title                       : Español-PGS [CinemaniaHDD]
    Language                    : Spanish
    Default                     : No
    Forced                      : No
    Original source medium      : Blu-ray

    Text #2
    ID                          : 5
    ID in the original source m : 4608 (0x1200)
    Format                      : PGS
    Muxing mode                 : zlib
    Codec ID                    : S_HDMV/PGS
    Codec ID/Info               : Picture based subtitle format used on BDs/HD-DVDs
    Duration                    : 1 h 37 min
    Bit rate                    : 19.6 kb/s
    Count of elements           : 1784
    Stream size                 : 13.7 MiB (0%)
    Title                       : Ingles-PGS [CinemaniaHDD]
    Language                    : English
    Default                     : No
    Forced                      : No
    Original source medium      : Blu-ray

    Text #3
    ID                          : 6
    Format                      : UTF-8
    Codec ID                    : S_TEXT/UTF8
    Codec ID/Info               : UTF-8 Plain Text
    Duration                    : 1 h 36 min
    Bit rate                    : 0 b/s
    Count of elements           : 9
    Stream size                 : 284 Bytes (0%)
    Title                       : Forzados-SRT [CinemaniaHDD]
    Language                    : Spanish
    Default                     : Yes
    Forced                      : Yes

    Text #4
    ID                          : 7
    Format                      : UTF-8
    Codec ID                    : S_TEXT/UTF8
    Codec ID/Info               : UTF-8 Plain Text
    Duration                    : 1 h 36 min
    Bit rate                    : 23 b/s
    Count of elements           : 561
    Stream size                 : 16.3 KiB (0%)
    Title                       : Español-SRT [CinemaniaHDD]
    Language                    : Spanish
    Default                     : No
    Forced                      : No

    Menu
    00:00:00.000                : Chapter 01
    00:04:08.248                : Chapter 02
    00:11:31.816                : Chapter 03
    00:16:29.780                : Chapter 04
    00:21:28.954                : Chapter 05
    00:26:20.161                : Chapter 06
    00:31:52.118                : Chapter 07
    00:37:32.166                : Chapter 08
    00:42:09.109                : Chapter 09
    00:48:23.775                : Chapter 10
    00:54:03.782                : Chapter 11
    00:59:48.001                : Chapter 12
    01:04:36.414                : Chapter 13
    01:12:55.204                : Chapter 14
    01:19:05.240                : Chapter 15
    01:26:51.831                : Chapter 16

  • Peso: 3.27 GiB

Sinopsis

Descargar El Exorcismo De Dios (2021) PLACEBO Full HD 1080p Latino. Un sacerdote estadounidense que trabaja en México es considerado un santo por muchos feligreses locales. Sin embargo, debido a un exorcismo fallido, guarda un secreto que lo está comiendo vivo hasta que tenga la oportunidad de enfrentarse a su demonio por última vez.

Ficha técnica

Video trailer de la película

Enlaces de descarga

Rip de Bluray

Descargar El Exorcismo De Dios (2021) PLACEBO Full HD 1080p Latino




Aportes de DPeliculasHDmega la pass es:dpeliculashdmega.org Aportes de CinemaniaHD la pass es:cinemaniahdd.com

Películas relacionadas

  • Warning (2021) PLACEBO Full HD 1080p Latino

    Warning (2021) PLACEBO Full HD 1080p Latino

    2021
    Warning (2021) PLACEBO Full HD 1080p Latino

    1h 25m 2021

    Descargar Warning (2021) PLACEBO Full HD 1080p Latino. Ambientada en un futuro no muy lejano, la obra...

    Director: Agata Alexander

    Género: Ciencia ficción

    Actores: Toni Garrn

  • Paratemporal (2019) HD 1080p Latino

    Paratemporal (2019) HD 1080p Latino

    2020
    Paratemporal (2019) HD 1080p Latino

    1h 42m 2020

    Descargar Paratemporal (2019) HD 1080p Latino. Dos paramédicos de Nueva Orleans ven cómo sus vidas...

    Director: Sandy Parker

    Género: Ciencia ficción

    Actores: Walker Babington

  • Paratemporal (2019) PLACEBO Full HD 1080p Latino

    Paratemporal (2019) PLACEBO Full HD 1080p Latino

    2020
    Paratemporal (2019) PLACEBO Full HD 1080p Latino

    1h 42m 2020

    Descargar Paratemporal (2019) PLACEBO Full HD 1080p Latino. Dos paramédicos de Nueva Orleans ven cómo...

    Director: Sandy Parker

    Género: Ciencia ficción

    Actores: Walker Babington

  • Paratemporal (2019) REMUX 1080p Latino

    Paratemporal (2019) REMUX 1080p Latino

    2020
    Paratemporal (2019) REMUX 1080p Latino

    1h 42m 2020

    Descargar Paratemporal (2019) REMUX 1080p Latino. Dos paramédicos de Nueva Orleans ven cómo sus vidas...

    Director: Sandy Parker

    Género: Ciencia ficción

    Actores: Walker Babington

El Exorcismo De Dios (2021) PLACEBO Full HD 1080p Latino pelicula full hd, El Exorcismo De Dios (2021) PLACEBO Full HD 1080p Latino mega latino, El Exorcismo De Dios (2021) PLACEBO Full HD 1080p Latino 4k latino, El Exorcismo De Dios (2021) PLACEBO Full HD 1080p Latino pelicula completa, El Exorcismo De Dios (2021) PLACEBO Full HD 1080p Latino descargar gratis, descargar El Exorcismo De Dios (2021) PLACEBO Full HD 1080p Latino pelicula latino, El Exorcismo De Dios (2021) PLACEBO Full HD 1080p Latino 1 link mega, El Exorcismo De Dios (2021) PLACEBO Full HD 1080p Latino 1 link google drive, El Exorcismo De Dios (2021) PLACEBO Full HD 1080p Latino hd 1080p latino.
Comentarios 0