×

¿Problemas para descargar con Mozilla, EDGE? Deshabilita la opción "Abrir vinculos en una pestaña nueva" tal como lo muestra ésta imagen.

El Exorcismo De Carmen Farías (2021) Web-DL 1080p Latino

207 vistas

Información de El Exorcismo De Carmen Farías (2021) Web-DL 1080p Latino

Datos de la película

  • Calidad: WEBDL
  • Audio: Español Latino AC3 5.1
  • Subtitulos: No
  • Resolución: 1912x800p
  • Formato: MKV
  • Codec: H.264
  • Encoder: CinemaniaHD
  • Mediainfo: Clic para Mostrar Datos Ver
  • El Exorcismo De Carmen Farias (2021) WebDL 1080p Latino.mkv
    Format                      : Matroska
    Format version              : Version 4
    File size                   : 4.57 GiB
    Duration                    : 1 h 32 min
    Overall bit rate            : 7 103 kb/s
    Movie name                  : El Exorcismo De Carmen Farias (2021) CinemaniaHDD.Net
    Encoded date                : UTC 2021-07-17 18:41:16
    Writing application         : mkvmerge v56.1.0 ('My Friend') 64-bit
    Writing library             : libebml v1.4.2 + libmatroska v1.6.4
    Attachments                 : CINEMANIAHD.png

    Video
    ID                          : 1
    Format                      : AVC
    Format/Info                 : Advanced Video Codec
    Format profile              : High@L4
    Format settings             : CABAC / 5 Ref Frames
    Format settings, CABAC      : Yes
    Format settings, Reference  : 5 frames
    Codec ID                    : V_MPEG4/ISO/AVC
    Duration                    : 1 h 32 min
    Bit rate                    : 6 717 kb/s
    Width                       : 1 912 pixels
    Height                      : 800 pixels
    Display aspect ratio        : 2.40:1
    Frame rate mode             : Constant
    Frame rate                  : 23.976 (24000/1001) FPS
    Color space                 : YUV
    Chroma subsampling          : 4:2:0
    Bit depth                   : 8 bits
    Scan type                   : Progressive
    Bits/(Pixel*Frame)          : 0.183
    Stream size                 : 4.32 GiB (95%)
    Title                       : WEB HD1080p [CinemaniaHDD]
    Default                     : Yes
    Forced                      : Yes
    Color range                 : Limited
    Color primaries             : BT.709
    Transfer characteristics    : BT.709
    Matrix coefficients         : BT.709

    Audio
    ID                          : 2
    Format                      : AC-3
    Format/Info                 : Audio Coding 3
    Commercial name             : Dolby Digital
    Codec ID                    : A_AC3
    Duration                    : 1 h 32 min
    Bit rate mode               : Constant
    Bit rate                    : 384 kb/s
    Channel(s)                  : 6 channels
    Channel layout              : L R C LFE Ls Rs
    Sampling rate               : 48.0 kHz
    Frame rate                  : 31.250 FPS (1536 SPF)
    Compression mode            : Lossy
    Stream size                 : 253 MiB (5%)
    Title                       : Español Latino [CinemaniaHDD]
    Language                    : Spanish
    Service kind                : Complete Main
    Default                     : Yes
    Forced                      : Yes

  • Peso: 4.57 GiB

Sinopsis

Descargar El Exorcismo De Carmen Farías (2021) Web-DL 1080p Latino. Carmen descubre que su abuela le ha dejado algo más que una casa como herencia.

Ficha técnica

  • Titulo original: El exorcismo de Carmen Farías
  • Fecha de lanzamiento: 05-07-2021 (Mexico)
  • Director: Rodrigo Fiallega
  • Género: Terror

Video trailer de la película

Enlaces de descarga

Rip de Bluray

Descargar El Exorcismo De Carmen Farías (2021) Web-DL 1080p Latino




Aportes de DPeliculasHDmega la pass es:dpeliculashdmega.org Aportes de CinemaniaHD la pass es:cinemaniahdd.com
Guardado en : Terror

Películas relacionadas

  • Resurrección (2022) AMZN WEB-DL 1080p Latino

    Resurrección (2022) AMZN WEB-DL 1080p Latino

    2022
    Resurrección (2022) AMZN WEB-DL 1080p Latino

    1h 43m 2022

    Descargar Resurrección (2022) AMZN Web-DL 1080p Latino. La vida cuidadosamente construida de una mujer...

    Director: Michael Kefeyalew

    Género: Drama

    Actores: Zarra Kaahn

  • Nope (2022) [IMAX] REMUX 4K HDR Latino – CMHDD

    Nope (2022) [IMAX] REMUX 4K HDR Latino – CMHDD

    2022
    Nope (2022) [IMAX] REMUX 4K HDR Latino – CMHDD

    2h 15m 2022

    Los habitantes de un remoto pueblo del interior de California, entre los que se encuentran los propietarios...

    Director: Wayne Witherspoon

    Género: Ciencia ficción

    Actores: Wrenn Schmidt

  • The Visitor (2022) AMZN WEB-DL 1080p Latino

    The Visitor (2022) AMZN WEB-DL 1080p Latino

    2022
    The Visitor (2022) AMZN WEB-DL 1080p Latino

    1h 26m 2022

    Descargar The Visitor (2022) AMZN WEB-DL 1080p Latino. Después de una serie de tragedias, incluida la...

    Director: Justin P. Lange

    Género: Misterio

    Actores: Victoria Paige Watkins

  • Sonríe (2022) WEB-DL 4K UHD HDR Latino

    Sonríe (2022) WEB-DL 4K UHD HDR Latino

    2022
    Sonríe (2022) WEB-DL 4K UHD HDR Latino

    1h 55m 2022

    Descargar Sonríe (2022) WEB-DL 4K UHD HDR Latino. Tras presenciar un extraño y traumático incidente...

    Director: Parker Finn

    Género: 4K HDR

    Actores: Vanessa Cozart

  • Sonríe (2022) AMZN WEB-DL 1080p Latino

    Sonríe (2022) AMZN WEB-DL 1080p Latino

    2022
    Sonríe (2022) AMZN WEB-DL 1080p Latino

    1h 55m 2022

    Descargar Sonríe (2022) AMZN WEB-DL 1080p Latino. Tras presenciar un extraño y traumático incidente...

    Director: Parker Finn

    Género: Misterio

    Actores: Vanessa Cozart

descargar El Exorcismo De Carmen Farías (2021) Web-DL 1080p Latino WEBDL 1080p gratis, El Exorcismo De Carmen Farías (2021) Web-DL 1080p Latino WEBDL mega 1 link, El Exorcismo De Carmen Farías (2021) Web-DL 1080p Latino WEBDL pelicula completa, descargar El Exorcismo De Carmen Farías (2021) Web-DL 1080p Latino WEBDL gratis en mega.

El Exorcismo De Carmen Farías (2021) Web-DL 1080p Latino pelicula full hd, El Exorcismo De Carmen Farías (2021) Web-DL 1080p Latino mega latino, El Exorcismo De Carmen Farías (2021) Web-DL 1080p Latino 4k latino, El Exorcismo De Carmen Farías (2021) Web-DL 1080p Latino pelicula completa, El Exorcismo De Carmen Farías (2021) Web-DL 1080p Latino descargar gratis, descargar El Exorcismo De Carmen Farías (2021) Web-DL 1080p Latino pelicula latino, El Exorcismo De Carmen Farías (2021) Web-DL 1080p Latino 1 link mega, El Exorcismo De Carmen Farías (2021) Web-DL 1080p Latino 1 link google drive, El Exorcismo De Carmen Farías (2021) Web-DL 1080p Latino hd 1080p latino.
Comentarios 0