×

¿Problemas para descargar con Mozilla, EDGE? Deshabilita la opción "Abrir vinculos en una pestaña nueva" tal como lo muestra ésta imagen.

El Escuadrón Suicida (2021) HD 1080p Latino

165 vistas

Información de El Escuadrón Suicida (2021) HD 1080p Latino

Datos de la película

  • Calidad: 1080p
  • Audio: Español Latino AC3 5.1 BLURAY - Ingles AC3 5.1 BLURAY
  • Subtitulos: Español Latino SRT- FORZADOS SRT
  • Resolución: 1920x1012p
  • Formato: MKV
  • Codec: H.264
  • Encoder: Melkor
  • Mediainfo: Clic para Mostrar Datos Ver
  • El Escuadron Suicida (2021) HD 1080p Latino.mkv
    Format                      : Matroska
    Format version              : Version 4
    File size                   : 5.22 GiB
    Duration                    : 2 h 12 min
    Overall bit rate            : 5 658 kb/s
    Movie name                  : The Suicide Squad (2021) CinemaniaHDD.Net
    Encoded date                : UTC 2021-10-16 03:10:40
    Writing application         : mkvmerge v56.1.0 ('My Friend') 64-bit
    Writing library             : libebml v1.4.2 + libmatroska v1.6.4
    Attachments                 : CINEMANIAHD.png

    Video
    ID                          : 1
    Format                      : AVC
    Format/Info                 : Advanced Video Codec
    Format profile              : High@L4.1
    Format settings             : CABAC / 4 Ref Frames
    Format settings, CABAC      : Yes
    Format settings, Reference  : 4 frames
    Codec ID                    : V_MPEG4/ISO/AVC
    Duration                    : 2 h 12 min
    Bit rate                    : 4 759 kb/s
    Width                       : 1 920 pixels
    Height                      : 1 012 pixels
    Display aspect ratio        : 1.897
    Frame rate mode             : Constant
    Frame rate                  : 23.976 (24000/1001) FPS
    Color space                 : YUV
    Chroma subsampling          : 4:2:0
    Bit depth                   : 8 bits
    Scan type                   : Progressive
    Bits/(Pixel*Frame)          : 0.102
    Stream size                 : 4.39 GiB (84%)
    Title                       : HD1080p [CinemaniaHDD]
    Writing library             : x264 core 163 r3059 b684ebe0
    Encoding settings           : cabac=1 / ref=4 / deblock=1:-1:-1 / analyse=0x3:0x133 / me=umh / subme=9 / psy=1 / psy_rd=1.00:0.15 / mixed_ref=1 / me_range=16 / chroma_me=1 / trellis=2 / 8x8dct=1 / cqm=0 / deadzone=21,11 / fast_pskip=1 / chroma_qp_offset=-3 / threads=24 / lookahead_threads=2 / sliced_threads=0 / nr=0 / decimate=1 / interlaced=0 / bluray_compat=0 / constrained_intra=0 / bframes=3 / b_pyramid=2 / b_adapt=2 / b_bias=0 / direct=3 / weightb=1 / open_gop=0 / weightp=2 / keyint=240 / keyint_min=24 / scenecut=40 / intra_refresh=0 / rc_lookahead=60 / rc=crf / mbtree=1 / crf=22.5 / qcomp=0.60 / qpmin=0 / qpmax=69 / qpstep=4 / vbv_maxrate=62500 / vbv_bufsize=78125 / crf_max=0.0 / nal_hrd=none / filler=0 / ip_ratio=1.40 / aq=1:1.00
    Default                     : Yes
    Forced                      : Yes
    Color range                 : Limited
    Color primaries             : BT.709
    Transfer characteristics    : BT.709
    Matrix coefficients         : BT.709

    Audio #1
    ID                          : 2
    Format                      : AC-3
    Format/Info                 : Audio Coding 3
    Commercial name             : Dolby Digital
    Codec ID                    : A_AC3
    Duration                    : 2 h 12 min
    Bit rate mode               : Constant
    Bit rate                    : 448 kb/s
    Channel(s)                  : 6 channels
    Channel layout              : L R C LFE Ls Rs
    Sampling rate               : 48.0 kHz
    Frame rate                  : 31.250 FPS (1536 SPF)
    Compression mode            : Lossy
    Delay relative to video     : -5 ms
    Stream size                 : 423 MiB (8%)
    Title                       : Español Latino [CinemaniaHDD]
    Language                    : Spanish
    Service kind                : Complete Main
    Default                     : Yes
    Forced                      : Yes

    Audio #2
    ID                          : 3
    Format                      : AC-3
    Format/Info                 : Audio Coding 3
    Commercial name             : Dolby Digital
    Codec ID                    : A_AC3
    Duration                    : 2 h 12 min
    Bit rate mode               : Constant
    Bit rate                    : 448 kb/s
    Channel(s)                  : 6 channels
    Channel layout              : L R C LFE Ls Rs
    Sampling rate               : 48.0 kHz
    Frame rate                  : 31.250 FPS (1536 SPF)
    Compression mode            : Lossy
    Delay relative to video     : -5 ms
    Stream size                 : 423 MiB (8%)
    Title                       : Ingles [CinemaniaHDD]
    Language                    : English
    Service kind                : Complete Main
    Default                     : No
    Forced                      : No

    Text #1
    ID                          : 4
    Format                      : UTF-8
    Codec ID                    : S_TEXT/UTF8
    Codec ID/Info               : UTF-8 Plain Text
    Duration                    : 2 h 4 min
    Bit rate                    : 0 b/s
    Count of elements           : 24
    Stream size                 : 693 Bytes (0%)
    Title                       : Forzados-SRT [CinemaniaHDD]
    Language                    : Spanish
    Default                     : Yes
    Forced                      : Yes

    Text #2
    ID                          : 5
    Format                      : UTF-8
    Codec ID                    : S_TEXT/UTF8
    Codec ID/Info               : UTF-8 Plain Text
    Duration                    : 2 h 11 min
    Bit rate                    : 39 b/s
    Count of elements           : 1201
    Stream size                 : 38.4 KiB (0%)
    Title                       : Español-SRT [CinemaniaHDD]
    Language                    : Spanish
    Default                     : No
    Forced                      : No

    Text #3
    ID                          : 6
    Format                      : UTF-8
    Codec ID                    : S_TEXT/UTF8
    Codec ID/Info               : UTF-8 Plain Text
    Duration                    : 2 h 11 min
    Bit rate                    : 94 b/s
    Count of elements           : 2051
    Stream size                 : 91.1 KiB (0%)
    Title                       : Ingles-SRT [CinemaniaHDD]
    Language                    : English
    Default                     : No
    Forced                      : No

    Menu
    00:00:00.000                : Chapter 01
    00:14:25.614                : Chapter 02
    00:22:08.035                : Chapter 03
    00:31:31.973                : Chapter 04
    00:40:48.696                : Chapter 05
    00:50:20.016                : Chapter 06
    01:01:09.665                : Chapter 07
    01:10:05.868                : Chapter 08
    01:19:44.488                : Chapter 09
    01:29:00.668                : Chapter 10
    01:40:41.160                : Chapter 11
    01:50:37.130                : Chapter 12
    01:59:28.536                : Chapter 13

  • Peso: 5.22 GiB

Sinopsis

Descargar El Escuadrón Suicida (2021) HD 1080p Latino. Un grupo de super villanos se encuentran encerrados en Belle Reve, una prisión de alta seguridad con la tasa de mortalidad más alta de Estados Unidos. Para salir de allí harán cualquier cosa, incluso unirse al grupo Task Force X, dedicado a llevar a cabo misiones suicidas bajo las órdenes de Amanda Waller. Fuertemente armados son enviados a la isla Corto Maltese, una jungla repleta de enemigos.

Ficha técnica

Video trailer de la película

Enlaces de descarga

Rip de Bluray

Descargar El Escuadrón Suicida (2021) HD 1080p Latino




Aportes de DPeliculasHDmega la pass es:dpeliculashdmega.org Aportes de CinemaniaHD la pass es:cinemaniahdd.com
Guardado en : Acción , Aventura , Fantasía , HD 1080p

Películas relacionadas

  • The Expendables (2010) [Open Matte] WEB-DL 1080p Latino

    The Expendables (2010) [Open Matte] WEB-DL 1080p Latino

    2010
    The Expendables (2010) [Open Matte] WEB-DL 1080p Latino

    1h 43m 2010

    Un grupo de mercenarios es contratado para infiltrarse en un país sudamericano y derrocar a su despiadado...

    Director: Sylvester Stallone

    Género: Acción

    Actores: Victor Eli Hugo

  • Carter (2022) NF WEB-DL 1080p Latino

    Carter (2022) NF WEB-DL 1080p Latino

    2022
    Carter (2022) NF WEB-DL 1080p Latino

    2h 12m 2022

    Representa la impresionante persecución del agente 'Carter', introducido en una operación misteriosa...

    Director: Jung Byung-gil

    Género: Acción

    Actores: Lee Sung-jae

  • Prey (2022) 4K-HDR WEB-DL 2160p Latino

    Prey (2022) 4K-HDR WEB-DL 2160p Latino

    2022
    Prey (2022) 4K-HDR WEB-DL 2160p Latino

    1h 40m 2022

    Ambientada hace 300 años en la Nación Comanche. Naru es una joven guerrera, feroz y altamente hábil,...

    Director: Richard Cowan

    Género: 4K HDR

    Actores: Tyson Carter

El Escuadrón Suicida (2021) HD 1080p Latino pelicula full hd, El Escuadrón Suicida (2021) HD 1080p Latino mega latino, El Escuadrón Suicida (2021) HD 1080p Latino 4k latino, El Escuadrón Suicida (2021) HD 1080p Latino pelicula completa, El Escuadrón Suicida (2021) HD 1080p Latino descargar gratis, descargar El Escuadrón Suicida (2021) HD 1080p Latino pelicula latino, El Escuadrón Suicida (2021) HD 1080p Latino 1 link mega, El Escuadrón Suicida (2021) HD 1080p Latino 1 link google drive, El Escuadrón Suicida (2021) HD 1080p Latino hd 1080p latino.
Comentarios 0