×

¿Problemas para descargar con Mozilla, EDGE? Deshabilita la opción "Abrir vinculos en una pestaña nueva" tal como lo muestra ésta imagen.

El escuadrón de la muerte (2019) 1080p Latino

305 vistas

Información de El escuadrón de la muerte (2019) 1080p Latino

Datos de la película

  • Calidad: 1080p
  • Audio: Español Latino AC3 5.1 iTUNES - Ingles AC3 5.1 BLURAY
  • Subtitulos: Español Latino SRT- FORZADOS SRT
  • Resolución: 1920x804
  • Formato: MKV
  • Codec: H.264
  • Encoder: CinemaniaHD
  • Mediainfo: Clic para Mostrar Datos Ver
  • The Kill Team (2019) 1080p Latino.mkv
    Format                      : Matroska
    Format version              : Version 4
    File size                   : 2.59 GiB
    Duration                    : 1 h 27 min
    Overall bit rate            : 4 240 kb/s
    Movie name                  : The Kill Team (2019) 1080p Latino
    Encoded date                : UTC 2020-04-24 15:36:26
    Writing application         : mkvmerge v42.0.0 ('Overtime') 64-bit
    Writing library             : libebml v1.3.10 + libmatroska v1.5.2 / Lavf58.20.100

    Video
    ID                          : 1
    Format                      : AVC
    Format/Info                 : Advanced Video Codec
    Format profile              : Main@L4
    Format settings             : CABAC / 4 Ref Frames
    Format settings, CABAC      : Yes
    Format settings, ReFrames   : 4 frames
    Codec ID                    : V_MPEG4/ISO/AVC
    Duration                    : 1 h 27 min
    Bit rate                    : 3 500 kb/s
    Width                       : 1 920 pixels
    Height                      : 804 pixels
    Display aspect ratio        : 2.40:1
    Frame rate mode             : Constant
    Frame rate                  : 23.976 (24000/1001) FPS
    Color space                 : YUV
    Chroma subsampling          : 4:2:0
    Bit depth                   : 8 bits
    Scan type                   : Progressive
    Bits/(Pixel*Frame)          : 0.095
    Stream size                 : 2.04 GiB (79%)
    Title                       : CinemaniaHDD
    Writing library             : x264 core 157 r2935 545de2f
    Encoding settings           : cabac=1 / ref=3 / deblock=1:0:0 / analyse=0x1:0x111 / me=hex / subme=7 / psy=1 / psy_rd=1.00:0.00 / mixed_ref=1 / me_range=16 / chroma_me=1 / trellis=1 / 8x8dct=0 / cqm=0 / deadzone=21,11 / fast_pskip=1 / chroma_qp_offset=-2 / threads=25 / lookahead_threads=4 / sliced_threads=0 / nr=0 / decimate=1 / interlaced=0 / bluray_compat=0 / constrained_intra=0 / bframes=3 / b_pyramid=2 / b_adapt=1 / b_bias=0 / direct=1 / weightb=1 / open_gop=0 / weightp=2 / keyint=240 / keyint_min=24 / scenecut=40 / intra_refresh=0 / rc_lookahead=40 / rc=abr / mbtree=1 / bitrate=3500 / ratetol=1.0 / qcomp=0.60 / qpmin=0 / qpmax=69 / qpstep=4 / vbv_maxrate=20000 / vbv_bufsize=25000 / nal_hrd=none / filler=0 / ip_ratio=1.40 / aq=1:1.00
    Default                     : Yes
    Forced                      : No
    Color range                 : Limited
    Color primaries             : BT.709
    Transfer characteristics    : BT.709
    Matrix coefficients         : BT.709

    Audio #1
    ID                          : 2
    Format                      : AC-3
    Format/Info                 : Audio Coding 3
    Commercial name             : Dolby Digital
    Codec ID                    : A_AC3
    Duration                    : 1 h 27 min
    Bit rate mode               : Constant
    Bit rate                    : 448 kb/s
    Channel(s)                  : 6 channels
    Channel layout              : L R C LFE Ls Rs
    Sampling rate               : 48.0 kHz
    Frame rate                  : 31.250 FPS (1536 SPF)
    Bit depth                   : 16 bits
    Compression mode            : Lossy
    Delay relative to video     : -5 ms
    Stream size                 : 280 MiB (11%)
    Title                       : Español latino [CinemaniaHDD]
    Language                    : Spanish
    Service kind                : Complete Main
    Default                     : Yes
    Forced                      : No

    Audio #2
    ID                          : 3
    Format                      : AC-3
    Format/Info                 : Audio Coding 3
    Commercial name             : Dolby Digital
    Codec ID                    : A_AC3
    Duration                    : 1 h 27 min
    Bit rate mode               : Constant
    Bit rate                    : 448 kb/s
    Channel(s)                  : 6 channels
    Channel layout              : L R C LFE Ls Rs
    Sampling rate               : 48.0 kHz
    Frame rate                  : 31.250 FPS (1536 SPF)
    Bit depth                   : 16 bits
    Compression mode            : Lossy
    Delay relative to video     : -5 ms
    Stream size                 : 281 MiB (11%)
    Title                       : Inglés [CinemaniaHDD]
    Language                    : English
    Service kind                : Complete Main
    Default                     : No
    Forced                      : No

    Text #1
    ID                          : 4
    Format                      : UTF-8
    Codec ID                    : S_TEXT/UTF8
    Codec ID/Info               : UTF-8 Plain Text
    Duration                    : 1 h 22 min
    Bit rate                    : 42 b/s
    Count of elements           : 865
    Stream size                 : 25.7 KiB (0%)
    Title                       : Español latino [CinemaniaHDD]
    Language                    : Spanish
    Default                     : Yes
    Forced                      : No

    Text #2
    ID                          : 5
    Format                      : UTF-8
    Codec ID                    : S_TEXT/UTF8
    Codec ID/Info               : UTF-8 Plain Text
    Duration                    : 1 h 19 min
    Bit rate                    : 1 b/s
    Count of elements           : 20
    Stream size                 : 842 Bytes (0%)
    Title                       : Forzados [CinemaniaHDD]
    Language                    : Spanish
    Default                     : No
    Forced                      : No

    Menu
    00:00:00.000                : :Chapter 1
    00:03:28.917                : :Chapter 2
    00:09:48.004                : :Chapter 3
    00:16:32.533                : :Chapter 4
    00:22:08.285                : :Chapter 5
    00:30:03.218                : :Chapter 6
    00:36:08.333                : :Chapter 7
    00:41:25.108                : :Chapter 8
    00:46:30.746                : :Chapter 9
    00:49:54.825                : :Chapter 10
    00:54:47.493                : :Chapter 11
    00:58:57.826                : :Chapter 12
    01:04:09.387                : :Chapter 13
    01:08:43.286                : :Chapter 14
    01:12:09.617                : :Chapter 15
    01:17:00.491                : :Chapter 16

  • Peso: 2.59 GiB

Sinopsis

Afganistán, 2009. El recién llegado Andrew Briggman (Nat Wolff) es un soldado que trata de destacar dentro de un escuadro´n repleto de salvajes militares. Inspirado por la determinacio´n del sargento Deeks (Alexander Skarsga°rd), Briggman trata de imitar su conducta temeraria, y en seguida consigue escalar puestos. Pero cuando Briggman es testigo de co´mo el peloto´n comienza a matar civiles inocentes, tendrá muchas dudas morales al respecto. Entonces tendrá que tomar una difícil decisión: denunciarlo poniendo en peligro su vida o callarse para participar en lo que cree que son cri´menes contra los derechos humanos. Esta película bélica basada en hechos reales la dirige el dos veces nominado al Oscar Dan Krauss.

Ficha técnica

Video trailer de la película

Enlaces de descarga

Rip de Bluray

Descargar El escuadrón de la muerte (2019) 1080p Latino




Aportes de DPeliculasHDmega la pass es:dpeliculashdmega.org Aportes de CinemaniaHD la pass es:cinemaniahdd.com
Guardado en : Acción , Drama , HD 1080p , Suspenso

Películas relacionadas

descargar El escuadrón de la muerte (2019) 1080p Latino 1080p 1080p gratis, El escuadrón de la muerte (2019) 1080p Latino 1080p mega 1 link, El escuadrón de la muerte (2019) 1080p Latino 1080p pelicula completa, descargar El escuadrón de la muerte (2019) 1080p Latino 1080p gratis en mega.

El escuadrón de la muerte (2019) 1080p Latino pelicula full hd, El escuadrón de la muerte (2019) 1080p Latino mega latino, El escuadrón de la muerte (2019) 1080p Latino 4k latino, El escuadrón de la muerte (2019) 1080p Latino pelicula completa, El escuadrón de la muerte (2019) 1080p Latino descargar gratis, descargar El escuadrón de la muerte (2019) 1080p Latino pelicula latino, El escuadrón de la muerte (2019) 1080p Latino 1 link mega, El escuadrón de la muerte (2019) 1080p Latino 1 link google drive, El escuadrón de la muerte (2019) 1080p Latino hd 1080p latino.
Comentarios 0