×

¿Problemas para descargar con Mozilla, EDGE? Deshabilita la opción "Abrir vinculos en una pestaña nueva" tal como lo muestra ésta imagen.

El Escándalo De La Selección De Gimnasia De EE UU (2019) AMZN WEB-DL 1080p Latino

868 vistas

Información de El Escándalo De La Selección De Gimnasia De EE UU (2019) AMZN WEB-DL 1080p Latino

Datos de la película

  • Calidad: WEBDL
  • Audio: Español Latino AC3 2.0 - Ingles AC3 5.1 HBO
  • Subtitulos: Español Latino SRT- FORZADOS SRT
  • Resolución: 1920x1080
  • Formato: MKV
  • Codec: H.264
  • Encoder: cinemaniahdd
  • Mediainfo: Clic para Mostrar Datos Ver
  • El Escándalo De La Selección De Gimnasia De EE UU (2019) AMZN WEB-DL 1080p Latino.mkv
    Format                      : Matroska
    Format version              : Version 4
    File size                   : 5.77 GiB
    Duration                    : 1 h 29 min
    Overall bit rate            : 9 273 kb/s
    Movie name                  : El Escándalo De La Selección De Gimnasia De EE UU (2019) - CinemaniaHDD.Net
    Encoded date                : UTC 2019-10-27 21:08:29
    Writing application         : mkvmerge v38.0.0 ('The Silent Type') 64-bit
    Writing library             : libebml v1.3.9 + libmatroska v1.5.2

    Video
    ID                          : 1
    Format                      : AVC
    Format/Info                 : Advanced Video Codec
    Format profile              : High@L4
    Format settings             : CABAC / 4 Ref Frames
    Format settings, CABAC      : Yes
    Format settings, ReFrames   : 4 frames
    Codec ID                    : V_MPEG4/ISO/AVC
    Duration                    : 1 h 29 min
    Bit rate mode               : Constant
    Bit rate                    : 8 374 kb/s
    Nominal bit rate            : 10 000 kb/s
    Width                       : 1 920 pixels
    Height                      : 1 080 pixels
    Display aspect ratio        : 16:9
    Frame rate mode             : Constant
    Frame rate                  : 23.976 (24000/1001) FPS
    Color space                 : YUV
    Chroma subsampling          : 4:2:0
    Bit depth                   : 8 bits
    Scan type                   : Progressive
    Bits/(Pixel*Frame)          : 0.168
    Stream size                 : 5.21 GiB (90%)
    Title                       : CinemaniaHDD
    Default                     : Yes
    Forced                      : No
    Color range                 : Limited
    Color primaries             : BT.709
    Transfer characteristics    : BT.709
    Matrix coefficients         : BT.709

    Audio #1
    ID                          : 2
    Format                      : AC-3
    Format/Info                 : Audio Coding 3
    Commercial name             : Dolby Digital
    Codec ID                    : A_AC3
    Duration                    : 1 h 29 min
    Bit rate mode               : Constant
    Bit rate                    : 256 kb/s
    Channel(s)                  : 2 channels
    Channel layout              : L R
    Sampling rate               : 48.0 kHz
    Frame rate                  : 31.250 FPS (1536 SPF)
    Bit depth                   : 16 bits
    Compression mode            : Lossy
    Stream size                 : 163 MiB (3%)
    Title                       : Español latino [CinemaniaHDD]
    Language                    : Spanish
    Service kind                : Complete Main
    Default                     : Yes
    Forced                      : No

    Audio #2
    ID                          : 3
    Format                      : E-AC-3
    Format/Info                 : Enhanced AC-3
    Commercial name             : Dolby Digital Plus
    Codec ID                    : A_EAC3
    Duration                    : 1 h 29 min
    Bit rate mode               : Constant
    Bit rate                    : 640 kb/s
    Channel(s)                  : 6 channels
    Channel layout              : L R C LFE Ls Rs
    Sampling rate               : 48.0 kHz
    Frame rate                  : 31.250 FPS (1536 SPF)
    Compression mode            : Lossy
    Stream size                 : 407 MiB (7%)
    Title                       : Inglés [CinemaniaHDD]
    Language                    : English
    Service kind                : Complete Main
    Default                     : No
    Forced                      : No

    Text #1
    ID                          : 4
    Format                      : UTF-8
    Codec ID                    : S_TEXT/UTF8
    Codec ID/Info               : UTF-8 Plain Text
    Duration                    : 1 h 11 min
    Bit rate                    : 3 b/s
    Count of elements           : 44
    Stream size                 : 1.68 KiB (0%)
    Title                       : Forzados [CinemaniaHDD]
    Language                    : Spanish
    Default                     : Yes
    Forced                      : Yes

    Text #2
    ID                          : 5
    Format                      : UTF-8
    Codec ID                    : S_TEXT/UTF8
    Codec ID/Info               : UTF-8 Plain Text
    Duration                    : 1 h 24 min
    Bit rate                    : 85 b/s
    Count of elements           : 1317
    Stream size                 : 53.3 KiB (0%)
    Title                       : Español latino [CinemaniaHDD]
    Language                    : Spanish
    Default                     : No
    Forced                      : No

    Text #3
    ID                          : 6
    Format                      : UTF-8
    Codec ID                    : S_TEXT/UTF8
    Codec ID/Info               : UTF-8 Plain Text
    Duration                    : 1 h 27 min
    Bit rate                    : 107 b/s
    Count of elements           : 1738
    Stream size                 : 69.0 KiB (0%)
    Title                       : Inglés [CinemaniaHDD]
    Language                    : English
    Default                     : No
    Forced                      : No

     

  • Peso: 5.77 GiB

Sinopsis

En 2016, la gimnasia de Estados Unidos se vio convulsionada tras descubrir que el doctor Larry Nassar había estado abusando de algunas atletas durante años. Este documental se centra en el escándalo, su tapadera y lo que sucedió después.

Ficha técnica

  • Titulo original: At the Heart of Gold: Inside the USA Gymnastics Scandal
  • Fecha de lanzamiento: 03-05-2019 (United States of America)
  • Director: Erin Lee Carr
  • Género: Documental, HBO

Video trailer de la película

Enlaces de descarga

Rip de Bluray

Descargar El Escándalo De La Selección De Gimnasia De EE UU (2019) AMZN WEB-DL 1080p Latino




Aportes de DPeliculasHDmega la pass es:dpeliculashdmega.org Aportes de CinemaniaHD la pass es:cinemaniahdd.com
Guardado en : Documental , HBO

Películas relacionadas

El Escándalo De La Selección De Gimnasia De EE UU (2019) AMZN WEB-DL 1080p Latino pelicula full hd, El Escándalo De La Selección De Gimnasia De EE UU (2019) AMZN WEB-DL 1080p Latino mega latino, El Escándalo De La Selección De Gimnasia De EE UU (2019) AMZN WEB-DL 1080p Latino 4k latino, El Escándalo De La Selección De Gimnasia De EE UU (2019) AMZN WEB-DL 1080p Latino pelicula completa, El Escándalo De La Selección De Gimnasia De EE UU (2019) AMZN WEB-DL 1080p Latino descargar gratis, descargar El Escándalo De La Selección De Gimnasia De EE UU (2019) AMZN WEB-DL 1080p Latino pelicula latino, El Escándalo De La Selección De Gimnasia De EE UU (2019) AMZN WEB-DL 1080p Latino 1 link mega, El Escándalo De La Selección De Gimnasia De EE UU (2019) AMZN WEB-DL 1080p Latino 1 link google drive, El Escándalo De La Selección De Gimnasia De EE UU (2019) AMZN WEB-DL 1080p Latino hd 1080p latino.
Comentarios 0