×

¿Problemas para descargar con Mozilla, EDGE? Deshabilita la opción "Abrir vinculos en una pestaña nueva" tal como lo muestra ésta imagen.

El Dilema De Las Redes Sociales (2020) NF WEB-DL 1080p Latino

383 vistas

Información de El Dilema De Las Redes Sociales (2020) NF WEB-DL 1080p Latino

Datos de la película

  • Calidad: WEBDL
  • Audio: Español Latino AC3 5.1 Netflix - Ingles AC3 5.1 Netflix
  • Subtitulos: Español Latino SRT- FORZADOS SRT
  • Resolución: 1920x1080
  • Formato: MKV
  • Codec: H.264
  • Encoder: cinemaniahdd
  • Mediainfo: Clic para Mostrar Datos Ver
  • The Social Dilemma (2020) NF WEB-DL 1080p Latino [CNMNHDD].mkv
    Format                      : Matroska
    Format version              : Version 4
    File size                   : 3.85 GiB
    Duration                    : 1 h 34 min
    Overall bit rate mode       : Variable
    Overall bit rate            : 5 830 kb/s
    Movie name                  : The Social Dilemma (2020) - CinemaniaHDD.Net
    Encoded date                : UTC 2020-09-10 18:44:12
    Writing application         : mkvmerge v46.0.0 ('No Deeper Escape') 64-bit
    Writing library             : libebml v1.3.10 + libmatroska v1.5.2

    Video
    ID                          : 1
    Format                      : AVC
    Format/Info                 : Advanced Video Codec
    Format profile              : Main@L4
    Format settings             : CABAC / 3 Ref Frames
    Format settings, CABAC      : Yes
    Format settings, Reference  : 3 frames
    Codec ID                    : V_MPEG4/ISO/AVC
    Duration                    : 1 h 34 min
    Bit rate mode               : Variable
    Bit rate                    : 5 110 kb/s
    Maximum bit rate            : 7 665 kb/s
    Width                       : 1 920 pixels
    Height                      : 1 080 pixels
    Display aspect ratio        : 16:9
    Frame rate mode             : Constant
    Frame rate                  : 23.976 (24000/1001) FPS
    Color space                 : YUV
    Chroma subsampling          : 4:2:0
    Bit depth                   : 8 bits
    Scan type                   : Progressive
    Bits/(Pixel*Frame)          : 0.103
    Stream size                 : 3.34 GiB (87%)
    Title                       : CinemaniaHDD
    Writing library             : x264 core 148 r2721 6d200cf
    Encoding settings           : cabac=1 / ref=3 / deblock=1:0:0 / analyse=0x1:0x111 / me=umh / subme=10 / psy=1 / psy_rd=1.00:0.00 / mixed_ref=1 / me_range=24 / chroma_me=1 / trellis=2 / 8x8dct=0 / cqm=0 / deadzone=21,11 / fast_pskip=1 / chroma_qp_offset=-2 / threads=6 / lookahead_threads=1 / sliced_threads=0 / nr=0 / decimate=1 / interlaced=0 / bluray_compat=0 / stitchable=1 / constrained_intra=0 / bframes=2 / b_pyramid=0 / b_adapt=2 / b_bias=0 / direct=3 / weightb=1 / open_gop=0 / weightp=2 / keyint=250 / keyint_min=23 / scenecut=0 / intra_refresh=0 / rc_lookahead=48 / rc=2pass / mbtree=1 / bitrate=5110 / ratetol=1.0 / qcomp=0.50 / qpmin=6 / qpmax=51 / qpstep=4 / cplxblur=20.0 / qblur=0.5 / vbv_maxrate=7665 / vbv_bufsize=10220 / nal_hrd=vbr / filler=0 / ip_ratio=1.40 / aq=1:1.00
    Default                     : Yes
    Forced                      : No

    Audio #1
    ID                          : 2
    Format                      : AC-3
    Format/Info                 : Audio Coding 3
    Commercial name             : Dolby Digital
    Codec ID                    : A_AC3
    Duration                    : 1 h 34 min
    Bit rate mode               : Constant
    Bit rate                    : 384 kb/s
    Channel(s)                  : 6 channels
    Channel layout              : L R C LFE Ls Rs
    Sampling rate               : 48.0 kHz
    Frame rate                  : 31.250 FPS (1536 SPF)
    Compression mode            : Lossy
    Stream size                 : 260 MiB (7%)
    Title                       : Español latino [CinemaniaHDD]
    Language                    : Spanish
    Service kind                : Complete Main
    Default                     : Yes
    Forced                      : No

    Audio #2
    ID                          : 3
    Format                      : AC-3
    Format/Info                 : Audio Coding 3
    Commercial name             : Dolby Digital
    Codec ID                    : A_AC3
    Duration                    : 1 h 34 min
    Bit rate mode               : Constant
    Bit rate                    : 384 kb/s
    Channel(s)                  : 6 channels
    Channel layout              : L R C LFE Ls Rs
    Sampling rate               : 48.0 kHz
    Frame rate                  : 31.250 FPS (1536 SPF)
    Compression mode            : Lossy
    Stream size                 : 260 MiB (7%)
    Title                       : Inglés [CinemaniaHDD]
    Language                    : English
    Service kind                : Complete Main
    Default                     : No
    Forced                      : No

    Text #1
    ID                          : 4
    Format                      : UTF-8
    Codec ID                    : S_TEXT/UTF8
    Codec ID/Info               : UTF-8 Plain Text
    Duration                    : 1 h 33 min
    Bit rate                    : 97 b/s
    Count of elements           : 1627
    Stream size                 : 66.3 KiB (0%)
    Title                       : Español latino [CinemaniaHDD]
    Language                    : Spanish
    Default                     : No
    Forced                      : No

  • Peso: 3.85 GiB

Sinopsis

A medida que las plataformas digitales se vuelven más importantes para mantenernos conectados, expertos explican cómo esta interacción está reprogramando la civilización, revelando qué se esconde al otro lado de la pantalla

Ficha técnica

Video trailer de la película

Enlaces de descarga

Rip de Bluray

Descargar El Dilema De Las Redes Sociales (2020) NF WEB-DL 1080p Latino




Aportes de DPeliculasHDmega la pass es:dpeliculashdmega.org Aportes de CinemaniaHD la pass es:cinemaniahdd.com
Guardado en : Documental , Drama , Netflix

Películas relacionadas

descargar El Dilema De Las Redes Sociales (2020) NF WEB-DL 1080p Latino WEBDL 1080p gratis, El Dilema De Las Redes Sociales (2020) NF WEB-DL 1080p Latino WEBDL mega 1 link, El Dilema De Las Redes Sociales (2020) NF WEB-DL 1080p Latino WEBDL pelicula completa, descargar El Dilema De Las Redes Sociales (2020) NF WEB-DL 1080p Latino WEBDL gratis en mega.

El Dilema De Las Redes Sociales (2020) NF WEB-DL 1080p Latino pelicula full hd, El Dilema De Las Redes Sociales (2020) NF WEB-DL 1080p Latino mega latino, El Dilema De Las Redes Sociales (2020) NF WEB-DL 1080p Latino 4k latino, El Dilema De Las Redes Sociales (2020) NF WEB-DL 1080p Latino pelicula completa, El Dilema De Las Redes Sociales (2020) NF WEB-DL 1080p Latino descargar gratis, descargar El Dilema De Las Redes Sociales (2020) NF WEB-DL 1080p Latino pelicula latino, El Dilema De Las Redes Sociales (2020) NF WEB-DL 1080p Latino 1 link mega, El Dilema De Las Redes Sociales (2020) NF WEB-DL 1080p Latino 1 link google drive, El Dilema De Las Redes Sociales (2020) NF WEB-DL 1080p Latino hd 1080p latino.
Comentarios 0