El día del fin del mundo (2020) REMUX 1080p Latino

136 vistas
1 estrella2 estrellas3 estrellas4 estrellas5 estrellas (2 votos, promedio: 5,00 de 5)
Cargando...

Información de El día del fin del mundo (2020) REMUX 1080p Latino

Datos de la película

  • Calidad: Full 1080p
  • Audio: Se especifica abajo de la Sinopsis
  • Subtitulos: Español Latino SRT- FORZADOS SRT
  • Resolución: 1920x1080p
  • Formato: MKV
  • Codec: H.264
  • Encoder: Dracarys
  • Mediainfo: Clic para Mostrar Datos Ver
  • El Dia Del Fin Del Mundo (2020) REMUX 1080p Latino.mkv
    Format                      : Matroska
    Format version              : Version 4
    File size                   : 21.5 GiB
    Duration                    : 1 h 59 min
    Overall bit rate mode       : Variable
    Overall bit rate            : 25.8 Mb/s
    Movie name                  : Grenland (2020) CinemaniaHDD.Net
    Encoded date                : UTC 2021-01-20 02:03:03
    Writing application         : mkvmerge v51.0.0 ('I Wish') 64-bit
    Writing library             : libebml v1.4.0 + libmatroska v1.6.2
    Attachments                 : CINEMANIAHD.png

    Video
    ID                          : 1
    Format                      : AVC
    Format/Info                 : Advanced Video Codec
    Format profile              : High@L4.1
    Format settings             : CABAC / 4 Ref Frames
    Format settings, CABAC      : Yes
    Format settings, Reference  : 4 frames
    Format settings, GOP        : M=3, N=12
    Codec ID                    : V_MPEG4/ISO/AVC
    Duration                    : 1 h 59 min
    Bit rate mode               : Variable
    Bit rate                    : 21.0 Mb/s
    Maximum bit rate            : 35.0 Mb/s
    Width                       : 1 920 pixels
    Height                      : 1 080 pixels
    Display aspect ratio        : 16:9
    Frame rate mode             : Constant
    Frame rate                  : 23.976 (24000/1001) FPS
    Standard                    : NTSC
    Color space                 : YUV
    Chroma subsampling          : 4:2:0
    Bit depth                   : 8 bits
    Scan type                   : Progressive
    Bits/(Pixel*Frame)          : 0.422
    Stream size                 : 17.5 GiB (81%)
    Title                       : REMUX HD1080p [CinemaniaHDD]
    Default                     : Yes
    Forced                      : Yes
    Color range                 : Limited
    Color primaries             : BT.709
    Transfer characteristics    : BT.709
    Matrix coefficients         : BT.709

    Audio #1
    ID                          : 2
    Format                      : E-AC-3
    Format/Info                 : Enhanced AC-3
    Commercial name             : Dolby Digital Plus
    Codec ID                    : A_EAC3
    Duration                    : 1 h 59 min
    Bit rate mode               : Constant
    Bit rate                    : 640 kb/s
    Channel(s)                  : 6 channels
    Channel layout              : L R C LFE Ls Rs
    Sampling rate               : 48.0 kHz
    Frame rate                  : 31.250 FPS (1536 SPF)
    Compression mode            : Lossy
    Delay relative to video     : 4 ms
    Stream size                 : 547 MiB (2%)
    Title                       : Español Latino [CinemaniaHDD]
    Language                    : Spanish
    Service kind                : Complete Main
    Default                     : Yes
    Forced                      : Yes

    Audio #2
    ID                          : 3
    Format                      : DTS XLL
    Format/Info                 : Digital Theater Systems
    Commercial name             : DTS-HD Master Audio
    Codec ID                    : A_DTS
    Duration                    : 1 h 59 min
    Bit rate mode               : Variable
    Bit rate                    : 3 528 kb/s
    Channel(s)                  : 6 channels
    Channel layout              : C L R Ls Rs LFE
    Sampling rate               : 48.0 kHz
    Frame rate                  : 93.750 FPS (512 SPF)
    Bit depth                   : 24 bits
    Compression mode            : Lossless
    Stream size                 : 2.94 GiB (14%)
    Title                       : Ingles [CinemaniaHDD]
    Language                    : English
    Default                     : No
    Forced                      : No

    Audio #3
    ID                          : 4
    Format                      : AC-3
    Format/Info                 : Audio Coding 3
    Commercial name             : Dolby Digital
    Codec ID                    : A_AC3
    Duration                    : 1 h 59 min
    Bit rate mode               : Constant
    Bit rate                    : 640 kb/s
    Channel(s)                  : 6 channels
    Channel layout              : L R C LFE Ls Rs
    Sampling rate               : 48.0 kHz
    Frame rate                  : 31.250 FPS (1536 SPF)
    Compression mode            : Lossy
    Delay relative to video     : 4 ms
    Stream size                 : 547 MiB (2%)
    Title                       : Español Latino AC3 [CinemaniaHDD]
    Language                    : Spanish
    Service kind                : Complete Main
    Default                     : No
    Forced                      : No

    Text #1
    ID                          : 5
    Format                      : UTF-8
    Codec ID                    : S_TEXT/UTF8
    Codec ID/Info               : UTF-8 Plain Text
    Duration                    : 1 h 52 min
    Bit rate                    : 0 b/s
    Count of elements           : 24
    Stream size                 : 699 Bytes (0%)
    Title                       : Forzados-SRT [CinemaniaHDD]
    Language                    : Spanish
    Default                     : Yes
    Forced                      : Yes

    Text #2
    ID                          : 6
    Format                      : UTF-8
    Codec ID                    : S_TEXT/UTF8
    Codec ID/Info               : UTF-8 Plain Text
    Duration                    : 1 h 53 min
    Bit rate                    : 67 b/s
    Count of elements           : 1547
    Stream size                 : 55.8 KiB (0%)
    Title                       : Español-SRT [CinemaniaHDD]
    Language                    : Spanish
    Default                     : No
    Forced                      : No

    Text #3
    ID                          : 7
    Format                      : UTF-8
    Codec ID                    : S_TEXT/UTF8
    Codec ID/Info               : UTF-8 Plain Text
    Duration                    : 1 h 52 min
    Bit rate                    : 67 b/s
    Count of elements           : 1775
    Stream size                 : 55.9 KiB (0%)
    Title                       : Ingles-SRT [CinemaniaHDD]
    Language                    : English
    Default                     : No
    Forced                      : No

    Menu
    00:00:00.000                : en:Chapter 01
    00:10:58.949                : en:Chapter 02
    00:22:35.520                : en:Chapter 03
    00:32:00.335                : en:Chapter 04
    00:42:23.290                : en:Chapter 05
    00:53:29.915                : en:Chapter 06
    01:04:47.508                : en:Chapter 07
    01:11:32.121                : en:Chapter 08
    01:22:15.263                : en:Chapter 09
    01:34:12.772                : en:Chapter 10
    01:42:04.201                : en:Chapter 11
    01:54:06.464                : en:Chapter 12

  • Peso: 21.5 GiB

Sinopsis

Descargar El día del fin del mundo (2020) REMUX 1080p Latino. Un matrimonio a punto de separarse debe tratar de garantizar la seguridad de su hijo y ellos mismos cuando una catástrofe se avecina hacia el planeta. Un objeto del espacio está a punto de colisionar con la Tierra y esta familia es escogida para entrar en un búnker subterráneo. Sin embargo, tienen poco tiempo. Tan solo cuentan con 48 horas antes de que el mundo que conocen se destruya para siempre.

Español Latino EAC3 & AC3 5.1 WebDL – Ingles DTS-HD 5.1 Bluray

Ficha técnica

Video trailer de la película

Enlaces de descarga

Rip de Bluray

Descargar El día del fin del mundo (2020) REMUX 1080p Latino




Aportes de DPeliculasHDmega la pass es:dpeliculashdmega.org Aportes de CinemaniaHD la pass es:cinemaniahdd.com
Guardado en : Acción , Remux , Suspenso

Películas relacionadas

  • 100% Lobo (2020) REMUX 1080p Latino

    100% Lobo (2020) REMUX 1080p Latino

    2020
    100% Lobo (2020) REMUX 1080p Latino

    0.0 1h 25m 2020

    Descargar 100% Lobo (2020) REMUX 1080p Latino. Freddy Lupin pertenece a una orgullosa familia de hombres...

    Director: Alexs Stadermann

    Género: Animación

    Actores: Samara Weaving

  • Sins and Seductions (2018) Star WEB-DL 1080p Latino

    Sins and Seductions (2018) Star WEB-DL 1080p Latino

    2019
    Sins and Seductions (2018) Star WEB-DL 1080p Latino

    5.0 1h 21m 2019

    Cuando la progresista pastora Leslie Reynolds da la bienvenida a una dulce pareja a su iglesia no se...

    Director: Jake Helgren

    Género: Misterio

    Actores: Toby Leeder

  • Sentinelle (2021) NF WEB-DL 1080p Latino

    Sentinelle (2021) NF WEB-DL 1080p Latino

    2021
    Sentinelle (2021) NF WEB-DL 1080p Latino

    5.0 1h 20m 2021

    De regreso en su casa tras una traumática misión de combate, una soldado altamente capacitada emplea...

    Director: Julien Leclercq

    Género: Acción

    Actores: Olga Kurylenko

  • El gran Gatsby (2013) REMUX 1080p Latino

    El gran Gatsby (2013) REMUX 1080p Latino

    2013
    El gran Gatsby (2013) REMUX 1080p Latino

    5.0 2h 23m 2013

    Descargar El gran Gatsby (2013) REMUX 1080p Latino. Adaptación de la novela homónima de F. Scott Fitzgerald....

    Director: Scott Lovelock

    Género: Drama

    Actores: Vince Colosimo

El día del fin del mundo (2020) REMUX 1080p Latino pelicula full hd, El día del fin del mundo (2020) REMUX 1080p Latino mega latino, El día del fin del mundo (2020) REMUX 1080p Latino 4k latino, El día del fin del mundo (2020) REMUX 1080p Latino pelicula completa, El día del fin del mundo (2020) REMUX 1080p Latino descargar gratis, descargar El día del fin del mundo (2020) REMUX 1080p Latino pelicula latino, El día del fin del mundo (2020) REMUX 1080p Latino 1 link mega, El día del fin del mundo (2020) REMUX 1080p Latino 1 link google drive, El día del fin del mundo (2020) REMUX 1080p Latino hd 1080p latino.
Comentarios 0