El día del fin del mundo (2020) PLACEBO Full HD 1080p Latino

310 vistas
1 estrella2 estrellas3 estrellas4 estrellas5 estrellas (2 votos, promedio: 5,00 de 5)
Cargando...

Información de El día del fin del mundo (2020) PLACEBO Full HD 1080p Latino

Datos de la película

  • Calidad: Full 1080p
  • Audio: Se especifica abajo de la Sinopsis
  • Subtitulos: Español Latino SRT- FORZADOS SRT
  • Resolución: 1920x1080p
  • Formato: MKV
  • Codec: H.264
  • Encoder: Dracarys
  • Mediainfo: Clic para Mostrar Datos Ver
  • El Dia Del Fin Del Mundo (2020) PLACEBO Full HD 1080p Latino.mkv
    Format                      : Matroska
    Format version              : Version 4
    File size                   : 5.80 GiB
    Duration                    : 1 h 59 min
    Overall bit rate            : 6 950 kb/s
    Movie name                  : Grenland (2020) CinemaniaHDD.Net
    Encoded date                : UTC 2021-01-20 01:42:02
    Writing application         : mkvmerge v51.0.0 ('I Wish') 64-bit
    Writing library             : libebml v1.4.0 + libmatroska v1.6.2
    Attachments                 : CINEMANIAHD.png

    Video
    ID                          : 1
    Format                      : AVC
    Format/Info                 : Advanced Video Codec
    Format profile              : High@L4.1
    Format settings             : CABAC / 4 Ref Frames
    Format settings, CABAC      : Yes
    Format settings, Reference  : 4 frames
    Codec ID                    : V_MPEG4/ISO/AVC
    Duration                    : 1 h 59 min
    Bit rate                    : 4 159 kb/s
    Width                       : 1 920 pixels
    Height                      : 1 080 pixels
    Display aspect ratio        : 16:9
    Frame rate mode             : Constant
    Frame rate                  : 23.976 (24000/1001) FPS
    Color space                 : YUV
    Chroma subsampling          : 4:2:0
    Bit depth                   : 8 bits
    Scan type                   : Progressive
    Bits/(Pixel*Frame)          : 0.084
    Stream size                 : 3.47 GiB (60%)
    Title                       : Full HD1080p [CinemaniaHDD
    Writing library             : x264 core 157 r2935 545de2f
    Encoding settings           : cabac=1 / ref=4 / deblock=1:0:0 / analyse=0x3:0x133 / me=tesa / subme=11 / psy=1 / psy_rd=1.00:0.00 / mixed_ref=1 / me_range=24 / chroma_me=1 / trellis=2 / 8x8dct=1 / cqm=0 / deadzone=21,11 / fast_pskip=0 / chroma_qp_offset=-2 / threads=24 / lookahead_threads=6 / sliced_threads=0 / nr=0 / decimate=1 / interlaced=0 / bluray_compat=0 / constrained_intra=0 / bframes=16 / b_pyramid=2 / b_adapt=2 / b_bias=0 / direct=3 / weightb=1 / open_gop=0 / weightp=2 / keyint=240 / keyint_min=24 / scenecut=40 / intra_refresh=0 / rc_lookahead=60 / rc=crf / mbtree=1 / crf=20.0 / qcomp=0.60 / qpmin=0 / qpmax=69 / qpstep=4 / vbv_maxrate=62500 / vbv_bufsize=78125 / crf_max=0.0 / nal_hrd=none / filler=0 / ip_ratio=1.40 / aq=1:1.00
    Default                     : Yes
    Forced                      : No
    Color range                 : Limited
    Color primaries             : BT.709
    Transfer characteristics    : BT.709
    Matrix coefficients         : BT.709

    Audio #1
    ID                          : 2
    Format                      : E-AC-3
    Format/Info                 : Enhanced AC-3
    Commercial name             : Dolby Digital Plus
    Codec ID                    : A_EAC3
    Duration                    : 1 h 59 min
    Bit rate mode               : Constant
    Bit rate                    : 640 kb/s
    Channel(s)                  : 6 channels
    Channel layout              : L R C LFE Ls Rs
    Sampling rate               : 48.0 kHz
    Frame rate                  : 31.250 FPS (1536 SPF)
    Compression mode            : Lossy
    Delay relative to video     : 4 ms
    Stream size                 : 547 MiB (9%)
    Title                       : Español Latino [CinemaniaHDD]
    Language                    : Spanish
    Service kind                : Complete Main
    Default                     : Yes
    Forced                      : Yes

    Audio #2
    ID                          : 3
    Format                      : DTS
    Format/Info                 : Digital Theater Systems
    Codec ID                    : A_DTS
    Duration                    : 1 h 59 min
    Bit rate mode               : Constant
    Bit rate                    : 1 509 kb/s
    Channel(s)                  : 6 channels
    Channel layout              : C L R Ls Rs LFE
    Sampling rate               : 48.0 kHz
    Frame rate                  : 93.750 FPS (512 SPF)
    Bit depth                   : 24 bits
    Compression mode            : Lossy
    Stream size                 : 1.26 GiB (22%)
    Title                       : Ingles [CinemaniaHDD]
    Language                    : English
    Default                     : No
    Forced                      : No

    Audio #3
    ID                          : 4
    Format                      : AC-3
    Format/Info                 : Audio Coding 3
    Commercial name             : Dolby Digital
    Codec ID                    : A_AC3
    Duration                    : 1 h 59 min
    Bit rate mode               : Constant
    Bit rate                    : 640 kb/s
    Channel(s)                  : 6 channels
    Channel layout              : L R C LFE Ls Rs
    Sampling rate               : 48.0 kHz
    Frame rate                  : 31.250 FPS (1536 SPF)
    Compression mode            : Lossy
    Delay relative to video     : 4 ms
    Stream size                 : 547 MiB (9%)
    Title                       : Español Latino AC3 [CinemaniaHDD]
    Language                    : Spanish
    Service kind                : Complete Main
    Default                     : No
    Forced                      : No

    Text #1
    ID                          : 5
    Format                      : UTF-8
    Codec ID                    : S_TEXT/UTF8
    Codec ID/Info               : UTF-8 Plain Text
    Duration                    : 1 h 52 min
    Bit rate                    : 0 b/s
    Count of elements           : 24
    Stream size                 : 699 Bytes (0%)
    Title                       : Forzados-SRT [CinemaniaHDD]
    Language                    : Spanish
    Default                     : Yes
    Forced                      : Yes

    Text #2
    ID                          : 6
    Format                      : UTF-8
    Codec ID                    : S_TEXT/UTF8
    Codec ID/Info               : UTF-8 Plain Text
    Duration                    : 1 h 53 min
    Bit rate                    : 67 b/s
    Count of elements           : 1547
    Stream size                 : 55.8 KiB (0%)
    Title                       : Español-SRT [CinemaniaHDD]
    Language                    : Spanish
    Default                     : No
    Forced                      : No

    Text #3
    ID                          : 7
    Format                      : UTF-8
    Codec ID                    : S_TEXT/UTF8
    Codec ID/Info               : UTF-8 Plain Text
    Duration                    : 1 h 52 min
    Bit rate                    : 67 b/s
    Count of elements           : 1775
    Stream size                 : 55.9 KiB (0%)
    Title                       : Ingles-SRT [CinemaniaHDD]
    Language                    : English
    Default                     : No
    Forced                      : No

    Menu
    00:00:00.000                : en:Chapter 01
    00:10:58.949                : en:Chapter 02
    00:22:35.520                : en:Chapter 03
    00:32:00.335                : en:Chapter 04
    00:42:23.290                : en:Chapter 05
    00:53:29.915                : en:Chapter 06
    01:04:47.508                : en:Chapter 07
    01:11:32.121                : en:Chapter 08
    01:22:15.263                : en:Chapter 09
    01:34:12.772                : en:Chapter 10
    01:42:04.201                : en:Chapter 11
    01:54:06.464                : en:Chapter 12

  • Peso: 5.80 GiB

Sinopsis

Descargar El día del fin del mundo (2020) PLACEBO Full HD 1080p Latino. Un matrimonio a punto de separarse debe tratar de garantizar la seguridad de su hijo y ellos mismos cuando una catástrofe se avecina hacia el planeta. Un objeto del espacio está a punto de colisionar con la Tierra y esta familia es escogida para entrar en un búnker subterráneo. Sin embargo, tienen poco tiempo. Tan solo cuentan con 48 horas antes de que el mundo que conocen se destruya para siempre.

Español Latino EAC3 & AC3 5.1 WebDL – Ingles DTS 5.1 Bluray

Ficha técnica

Video trailer de la película

Enlaces de descarga

Rip de Bluray

Descargar El día del fin del mundo (2020) PLACEBO Full HD 1080p Latino




Aportes de DPeliculasHDmega la pass es:dpeliculashdmega.org Aportes de CinemaniaHD la pass es:cinemaniahdd.com

Películas relacionadas

  • Rompe El Paso (2020) Full HD 1080p Latino

    Rompe El Paso (2020) Full HD 1080p Latino

    2020
    Rompe El Paso (2020) Full HD 1080p Latino

    0.0 1h 38m 2020

    Descargar Rompe El Paso (2020) Full HD 1080p Latino. Una joven bailarina de ballet descubre el hip-hop...

    Director: Stefan Westerwelle

    Género: Drama

    Actores: Yalany Marschner

  • Stowaway (2021) AMZN WEB-DL 1080p Latino

    Stowaway (2021) AMZN WEB-DL 1080p Latino

    2021
    Stowaway (2021) AMZN WEB-DL 1080p Latino

    5.0 1h 56m 2021

    Durante una misión a Marte, un polizón provoca sin querer daños graves en los sistemas de soporte...

    Director: Joe Penna

    Género: Ciencia ficción

    Actores: Toni Collette

  • Horizon Line (2020) HD 1080p Latino

    Horizon Line (2020) HD 1080p Latino

    2020
    Horizon Line (2020) HD 1080p Latino

    0.0 1h 31m 2020

    Descargar Horizon Line (2020) HD 1080p Latino. Una pareja que viaja en un avión pequeño para asistir...

    Director: Mikael Marcimain

    Género: HD 1080p

    Actores: Pearl Mackie

  • Horizon Line (2020) PLACEBO Full HD 1080p Latino

    Horizon Line (2020) PLACEBO Full HD 1080p Latino

    2020
    Horizon Line (2020) PLACEBO Full HD 1080p Latino

    0.0 1h 31m 2020

    Descargar Horizon Line (2020) PLACEBO Full HD 1080p Latino. Una pareja que viaja en un avión pequeño...

    Director: Mikael Marcimain

    Género: FULL 1080p Plateadas

    Actores: Pearl Mackie

  • Horizon Line (2020) REMUX 1080p Latino

    Horizon Line (2020) REMUX 1080p Latino

    2020
    Horizon Line (2020) REMUX 1080p Latino

    5.0 1h 31m 2020

    Descargar Horizon Line (2020) REMUX 1080p Latino. Una pareja que viaja en un avión pequeño para asistir...

    Director: Mikael Marcimain

    Género: Remux

    Actores: Pearl Mackie

El día del fin del mundo (2020) PLACEBO Full HD 1080p Latino pelicula full hd, El día del fin del mundo (2020) PLACEBO Full HD 1080p Latino mega latino, El día del fin del mundo (2020) PLACEBO Full HD 1080p Latino 4k latino, El día del fin del mundo (2020) PLACEBO Full HD 1080p Latino pelicula completa, El día del fin del mundo (2020) PLACEBO Full HD 1080p Latino descargar gratis, descargar El día del fin del mundo (2020) PLACEBO Full HD 1080p Latino pelicula latino, El día del fin del mundo (2020) PLACEBO Full HD 1080p Latino 1 link mega, El día del fin del mundo (2020) PLACEBO Full HD 1080p Latino 1 link google drive, El día del fin del mundo (2020) PLACEBO Full HD 1080p Latino hd 1080p latino.
Comentarios 5
  • Mario - 20 enero, 2021

    Muchas gracias…

  • ocpgaiden - 19 enero, 2021

    Gracias y saludos

  • The Principal - 19 enero, 2021

    Hola Amigo te pasaste con esta muy completa…GRACIAS!!

  • Cristian - 09 enero, 2021

    Hola buena tarde cuando la pondrán en español latino 5.1 gracias

    • Dracarys - 09 enero, 2021

      aún no se sabe