El Depredador (2018) 4K UHD HDR Latino

1.641 vistas
1 estrella2 estrellas3 estrellas4 estrellas5 estrellas (6 votos, promedio: 5,00 de 5)
Cargando...

Información de El Depredador (2018) 4K UHD HDR Latino

Datos de la película

  • Calidad: 4K HDR
  • Audio: Español Latino AC3 5.1 BLURAY - Ingles AC3 5.1 BLURAY
  • Subtitulos: Español PGS - Ingles PGS
  • Resolución: 3840x1608p
  • Formato: MKV
  • Codec: HEVC
  • Encoder: CinefiloCool
  • Mediainfo: Clic para Mostrar Datos Ver
  • El Depredador (2018) UHD HDR Latino.mkv
    Format                      : Matroska
    Format version              : Version 4
    File size                   : 17.8 GiB
    Duration                    : 1 h 46 min
    Overall bit rate            : 23.8 Mb/s
    Movie name                  : CinemaniaHDD.Net
    Encoded date                : UTC 2019-02-19 05:48:15
    Writing application         : mkvmerge v30.1.0 ('Forever And More') 64-bit
    Writing library             : libebml v1.3.6 + libmatroska v1.4.9

    Video
    ID                          : 1
    Format                      : HEVC
    Format/Info                 : High Efficiency Video Coding
    Commercial name             : HDR10
    Format profile              : Main 10@L5.1@High
    Codec ID                    : V_MPEGH/ISO/HEVC
    Duration                    : 1 h 46 min
    Bit rate                    : 22.6 Mb/s
    Width                       : 3 840 pixels
    Height                      : 1 608 pixels
    Display aspect ratio        : 2.40:1
    Frame rate mode             : Constant
    Frame rate                  : 23.976 (24000/1001) FPS
    Color space                 : YUV
    Chroma subsampling          : 4:2:0 (Type 2)
    Bit depth                   : 10 bits
    Bits/(Pixel*Frame)          : 0.153
    Stream size                 : 16.9 GiB (95%)
    Title                       : 2160p HDR [Bluray]
    Writing library             : x265 2.9+8-27d8424c799d:[Windows][MSVC 1900][64 bit] 10bit
    Encoding settings           : cpuid=1176575 / frame-threads=5 / numa-pools=36 / wpp / no-pmode / no-pme / no-psnr / no-ssim / log-level=2 / input-csp=1 / input-res=3840x1608 / interlace=0 / total-frames=153864 / level-idc=51 / high-tier=1 / uhd-bd=0 / ref=4 / no-allow-non-conformance / repeat-headers / annexb / aud / hrd / info / hash=0 / no-temporal-layers / no-open-gop / min-keyint=24 / keyint=240 / gop-lookahead=0 / bframes=4 / b-adapt=2 / b-pyramid / bframe-bias=0 / rc-lookahead=25 / lookahead-slices=4 / scenecut=40 / radl=0 / no-intra-refresh / ctu=64 / min-cu-size=8 / rect / no-amp / max-tu-size=32 / tu-inter-depth=1 / tu-intra-depth=1 / limit-tu=0 / rdoq-level=2 / dynamic-rd=0.00 / no-ssim-rd / signhide / no-tskip / nr-intra=0 / nr-inter=0 / no-constrained-intra / no-strong-intra-smoothing / max-merge=3 / limit-refs=3 / limit-modes / me=3 / subme=3 / merange=57 / temporal-mvp / weightp / no-weightb / no-analyze-src-pics / deblock=-3:-3 / no-sao / no-sao-non-deblock / rd=4 / no-early-skip / rskip / no-fast-intra / no-tskip-fast / no-cu-lossless / no-b-intra / no-splitrd-skip / rdpenalty=0 / psy-rd=2.00 / psy-rdoq=1.00 / no-rd-refine / no-lossless / cbqpoffs=0 / crqpoffs=0 / rc=crf / crf=17.0 / qcomp=0.60 / qpstep=4 / stats-write=0 / stats-read=0 / vbv-maxrate=160000 / vbv-bufsize=160000 / vbv-init=0.9 / crf-max=0.0 / crf-min=0.0 / ipratio=1.40 / pbratio=1.30 / aq-mode=1 / aq-strength=1.00 / cutree / zone-count=0 / no-strict-cbr / qg-size=32 / no-rc-grain / qpmax=69 / qpmin=0 / no-const-vbv / sar=1 / overscan=0 / videoformat=5 / range=0 / colorprim=9 / transfer=16 / colormatrix=9 / chromaloc=1 / chromaloc-top=2 / chromaloc-bottom=2 / display-window=0 / master-display=G(13250,34500)B(7500,3000)R(34000,16000)WP(15635,16450)L(10000000,50) / max-cll=0,0 / min-luma=0 / max-luma=1023 / log2-max-poc-lsb=8 / vui-timing-info / vui-hrd-info / slices=1 / no-opt-qp-pps / no-opt-ref-list-length-pps / no-multi-pass-opt-rps / scenecut-bias=0.05 / no-opt-cu-delta-qp / no-aq-motion / hdr / hdr-opt / no-dhdr10-opt / no-idr-recovery-sei / analysis-reuse-level=5 / scale-factor=0 / refine-intra=0 / refine-inter=0 / refine-mv=0 / no-limit-sao / ctu-info=0 / no-lowpass-dct / refine-mv-type=0 / copy-pic=1 / max-ausize-factor=1.0 / no-dynamic-refine / no-single-sei
    Default                     : Yes
    Forced                      : No
    Color range                 : Limited
    Color primaries             : BT.2020
    Transfer characteristics    : PQ
    Matrix coefficients         : BT.2020 non-constant
    Mastering display color pri : Display P3
    Mastering display luminance : min: 0.0050 cd/m2, max: 1000 cd/m2

    Audio #1
    ID                          : 2
    Format                      : AC-3
    Format/Info                 : Audio Coding 3
    Commercial name             : Dolby Digital
    Codec ID                    : A_AC3
    Duration                    : 1 h 46 min
    Bit rate mode               : Constant
    Bit rate                    : 448 kb/s
    Channel(s)                  : 6 channels
    Channel layout              : L R C LFE Ls Rs
    Sampling rate               : 48.0 kHz
    Frame rate                  : 31.250 FPS (1536 SPF)
    Bit depth                   : 16 bits
    Compression mode            : Lossy
    Stream size                 : 343 MiB (2%)
    Title                       : AC3_5.1_Bluray_Esp
    Language                    : Spanish
    Service kind                : Complete Main
    Default                     : Yes
    Forced                      : Yes

    Audio #2
    ID                          : 3
    Format                      : AC-3
    Format/Info                 : Audio Coding 3
    Commercial name             : Dolby Digital
    Codec ID                    : A_AC3
    Duration                    : 1 h 46 min
    Bit rate mode               : Constant
    Bit rate                    : 640 kb/s
    Channel(s)                  : 6 channels
    Channel layout              : L R C LFE Ls Rs
    Sampling rate               : 48.0 kHz
    Frame rate                  : 31.250 FPS (1536 SPF)
    Bit depth                   : 16 bits
    Compression mode            : Lossy
    Stream size                 : 490 MiB (3%)
    Title                       : AC3_5.1_Bluray_Eng
    Language                    : English
    Service kind                : Complete Main
    Default                     : No
    Forced                      : No

    Text #1
    ID                          : 4
    Format                      : PGS
    Muxing mode                 : zlib
    Codec ID                    : S_HDMV/PGS
    Codec ID/Info               : Picture based subtitle format used on BDs/HD-DVDs
    Duration                    : 1 h 36 min
    Bit rate                    : 43 b/s
    Count of elements           : 4
    Stream size                 : 31.0 KiB (0%)
    Title                       : Sub_Forzados [PGS]
    Language                    : Spanish
    Default                     : Yes
    Forced                      : Yes

    Text #2
    ID                          : 5
    Format                      : PGS
    Muxing mode                 : zlib
    Codec ID                    : S_HDMV/PGS
    Codec ID/Info               : Picture based subtitle format used on BDs/HD-DVDs
    Duration                    : 1 h 45 min
    Bit rate                    : 44.7 kb/s
    Count of elements           : 2316
    Stream size                 : 33.7 MiB (0%)
    Title                       : Sub_Esp [PGS]
    Language                    : Spanish
    Default                     : No
    Forced                      : No

    Text #3
    ID                          : 6
    Format                      : PGS
    Muxing mode                 : zlib
    Codec ID                    : S_HDMV/PGS
    Codec ID/Info               : Picture based subtitle format used on BDs/HD-DVDs
    Duration                    : 1 h 38 min
    Bit rate                    : 66.4 kb/s
    Count of elements           : 3410
    Stream size                 : 46.8 MiB (0%)
    Title                       : Sub_Eng [PGS]
    Language                    : English
    Default                     : No
    Forced                      : No

    Menu
    00:00:00.000                : :Chapter 01
    00:02:00.704                : :Chapter 02
    00:08:32.929                : :Chapter 03
    00:09:45.335                : :Chapter 04
    00:13:47.660                : :Chapter 05
    00:16:09.177                : :Chapter 06
    00:17:36.430                : :Chapter 07
    00:20:21.470                : :Chapter 08
    00:25:01.959                : :Chapter 09
    00:27:36.280                : :Chapter 10
    00:31:10.077                : :Chapter 11
    00:36:23.348                : :Chapter 12
    00:38:00.653                : :Chapter 13
    00:39:42.547                : :Chapter 14
    00:44:34.714                : :Chapter 15
    00:49:15.911                : :Chapter 16
    00:53:18.612                : :Chapter 17
    00:58:34.511                : :Chapter 18
    00:59:58.512                : :Chapter 19
    01:03:16.292                : :Chapter 20
    01:06:36.826                : :Chapter 21
    01:09:51.020                : :Chapter 22
    01:12:26.634                : :Chapter 23
    01:15:55.634                : :Chapter 24
    01:18:52.686                : :Chapter 25
    01:21:24.630                : :Chapter 26
    01:23:08.942                : :Chapter 27
    01:27:08.807                : :Chapter 28
    01:30:55.241                : :Chapter 29
    01:32:14.821                : :Chapter 30
    01:35:08.411                : :Chapter 31
    01:40:00.203                : :Chapter 32

  • Peso: 17.8 GiB

Sinopsis

Descargar El Depredador (2018) 4K UHD HDR Latino, Mega, Google Drive. Desde los confines del espacio hasta los suburbios de las pequeñas ciudades, la búsqueda llega a la casa de la reinvención por Shane Black de la saga «Predator». Ahora, los cazadores más letales del universo son más fuertes, más inteligentes y más mortales que nunca, y se han mejorado genéticamente con ADN de otras especies. Cuando un niño accidentalmente desencadena su regreso a la Tierra, solo un grupo de ex soldados y una profesora de ciencias podrán evitar, quizá el fin de la raza humana.

Ficha técnica

Video trailer de la película

Enlaces de descarga

Rip de Bluray

Descargar El Depredador (2018) 4K UHD HDR Latino




Aportes de DPeliculasHDmega la pass es:dpeliculashdmega.org Aportes de CinemaniaHD la pass es:cinemaniahdd.com

Películas relacionadas

  • Spirit: El Indomable (2021) Web-DL 4K UHD HDR Latino

    Spirit: El Indomable (2021) Web-DL 4K UHD HDR Latino

    2021
    Spirit: El Indomable (2021) Web-DL 4K UHD HDR Latino

    0.0 1h 28m 2021

    Descargar Spirit: El Indomable (2021) Web-DL 4K UHD HDR Latino. La vida de Lucky Prescott cambia para...

    Director: Ennio Torresan Jr.

    Género: 4K HDR

    Actores: Walton Goggins

  • Spirit: El Indomable (2021) AMZN WebDL 1080p Latino

    Spirit: El Indomable (2021) AMZN WebDL 1080p Latino

    2021
    Spirit: El Indomable (2021) AMZN WebDL 1080p Latino

    0.0 1h 28m 2021

    Descargar Spirit: El Indomable (2021) AMZN WebDL 1080p Latino. La vida de Lucky Prescott cambia para...

    Director: Ennio Torresan Jr.

    Género: Animación

    Actores: Walton Goggins

  • Spirit: El Indomable (2021) WebDL 1080p Latino

    Spirit: El Indomable (2021) WebDL 1080p Latino

    2021
    Spirit: El Indomable (2021) WebDL 1080p Latino

    0.0 1h 28m 2021

    Descargar Spirit: El Indomable (2021) WebDL 1080p Latino. La vida de Lucky Prescott cambia para siempre...

    Director: Ennio Torresan Jr.

    Género: Animación

    Actores: Walton Goggins

  • Loki (2021) temporada 1 Web-DL 4K UHD HDR Latino

    Loki (2021) temporada 1 Web-DL 4K UHD HDR Latino

    2021
    Loki (2021) temporada 1 Web-DL 4K UHD HDR Latino

    3.2 0h 45m 2021

    Descargar Loki (2021) temporada 1 Web-DL 4K UHD HDR Latino. En “Loki”, de Marvel Studios, el volátil...

    Director: Michael Waldron

    Género: 4K HDR

    Actores: Wunmi Mosaku

  • The Last Exorcism (2010) WEB-DL 1080p Latino

    The Last Exorcism (2010) WEB-DL 1080p Latino

    2010
    The Last Exorcism (2010) WEB-DL 1080p Latino

    5.0 1h 27m 2010

    Tras una carrera ayudando a los devotos a través de plegarias, el reverendo evangelista Cotton Marcus...

    Director: Daniel Stamm

    Género: Suspenso

    Actores: Tony Bentley

El Depredador (2018) 4K UHD HDR Latino pelicula full hd, El Depredador (2018) 4K UHD HDR Latino mega latino, El Depredador (2018) 4K UHD HDR Latino 4k latino, El Depredador (2018) 4K UHD HDR Latino pelicula completa, El Depredador (2018) 4K UHD HDR Latino descargar gratis, descargar El Depredador (2018) 4K UHD HDR Latino pelicula latino, El Depredador (2018) 4K UHD HDR Latino 1 link mega, El Depredador (2018) 4K UHD HDR Latino 1 link google drive, El Depredador (2018) 4K UHD HDR Latino hd 1080p latino.
Comentarios 0