El Depredador (2018) Full 1080p Latino ( PLACEBO)

7.853 vistas
1 estrella2 estrellas3 estrellas4 estrellas5 estrellas (10 votos, promedio: 4,50 de 5)
Cargando…

Información de El Depredador (2018) Full 1080p Latino ( PLACEBO)

Datos de la película

  • Calidad: Full 1080p
  • Audio: Español Latino AC3 5.1 BLURAY - Ingles DTS 5.1 BLURAY
  • Subtitulos: Español Latino PGS - Ingles PGS
  • Resolución: 1920x1080
  • Formato: MKV
  • Codec: H.264
  • Encoder: chesse92
  • Mediainfo: Clic para Mostrar Datos Ver
  • The Predator (2018) Full 1080p Latino(PLACEBO).mkv
    Format                      : Matroska
    Format version              : Version 4
    File size                   : 4.86 GiB
    Duration                    : 1 h 46 min
    Overall bit rate            : 6 506 kb/s
    Movie name                  : CinemaniaHDD.net
    Encoded date                : UTC 2018-12-11 19:29:42 / UTC 2018-12-11T03:24:22Z
    Writing application         : mkvmerge v28.2.0 ('The Awakening') 64-bit
    Writing library             : libebml v1.3.6 + libmatroska v1.4.9 / Lavf57.7.2

    Video
    ID                          : 1
    Format                      : AVC
    Format/Info                 : Advanced Video Codec
    Format profile              : [email protected]
    Format settings             : CABAC / 4 Ref Frames
    Format settings, CABAC      : Yes
    Format settings, ReFrames   : 4 frames
    Codec ID                    : V_MPEG4/ISO/AVC
    Duration                    : 1 h 46 min
    Bit rate                    : 4 525 kb/s
    Width                       : 1 920 pixels
    Height                      : 1 080 pixels
    Display aspect ratio        : 16:9
    Frame rate mode             : Constant
    Frame rate                  : 23.976 (24000/1001) FPS
    Color space                 : YUV
    Chroma subsampling          : 4:2:0
    Bit depth                   : 8 bits
    Scan type                   : Progressive
    Bits/(Pixel*Frame)          : 0.091
    Stream size                 : 3.38 GiB (70%)
    Writing library             : x264 core 155 r2893 b00bcaf
    Encoding settings           : cabac=1 / ref=4 / deblock=1:0:0 / analyse=0x3:0x133 / me=tesa / subme=11 / psy=1 / psy_rd=1.00:0.00 / mixed_ref=1 / me_range=24 / chroma_me=1 / trellis=2 / 8x8dct=1 / cqm=0 / deadzone=21,11 / fast_pskip=0 / chroma_qp_offset=-2 / threads=34 / lookahead_threads=8 / sliced_threads=0 / nr=0 / decimate=1 / interlaced=0 / bluray_compat=0 / constrained_intra=0 / bframes=16 / b_pyramid=2 / b_adapt=2 / b_bias=0 / direct=3 / weightb=1 / open_gop=0 / weightp=2 / keyint=240 / keyint_min=24 / scenecut=40 / intra_refresh=0 / rc_lookahead=60 / rc=crf / mbtree=1 / crf=20.0 / qcomp=0.60 / qpmin=0 / qpmax=69 / qpstep=4 / vbv_maxrate=62500 / vbv_bufsize=78125 / crf_max=0.0 / nal_hrd=none / filler=0 / ip_ratio=1.40 / aq=1:1.00
    Default                     : Yes
    Forced                      : No
    Color range                 : Limited
    Color primaries             : BT.709
    Transfer characteristics    : BT.709
    Matrix coefficients         : BT.709

    Audio #1
    ID                          : 2
    Format                      : AC-3
    Format/Info                 : Audio Coding 3
    Commercial name             : Dolby Digital
    Codec ID                    : A_AC3
    Duration                    : 1 h 46 min
    Bit rate mode               : Constant
    Bit rate                    : 448 kb/s
    Channel(s)                  : 6 channels
    Channel layout              : L R C LFE Ls Rs
    Sampling rate               : 48.0 kHz
    Frame rate                  : 31.250 FPS (1536 SPF)
    Bit depth                   : 16 bits
    Compression mode            : Lossy
    Delay relative to video     : 28 ms
    Stream size                 : 343 MiB (7%)
    Title                       : Surround
    Language                    : Spanish
    Service kind                : Complete Main
    Default                     : Yes
    Forced                      : No

    Audio #2
    ID                          : 3
    Format                      : DTS ES
    Format/Info                 : Digital Theater Systems
    Commercial name             : DTS-ES Matrix
    Codec ID                    : A_DTS
    Duration                    : 1 h 46 min
    Bit rate mode               : Constant
    Bit rate                    : 1 509 kb/s
    Channel(s)                  : 6 channels
    Channel(s)_Original         : 7 channels
    Channel layout              : C L R Ls Rs Cb LFE
    Sampling rate               : 48.0 kHz
    Frame rate                  : 93.750 FPS (512 SPF)
    Bit depth                   : 24 bits
    Compression mode            : Lossy
    Stream size                 : 1.13 GiB (23%)
    Title                       : Surround
    Language                    : English
    Default                     : No
    Forced                      : No

    Text #1
    ID                          : 4
    Format                      : PGS
    Muxing mode                 : zlib
    Codec ID                    : S_HDMV/PGS
    Codec ID/Info               : Picture based subtitle format used on BDs/HD-DVDs
    Duration                    : 1 h 45 min
    Bit rate                    : 44.7 kb/s
    Count of elements           : 2316
    Stream size                 : 33.7 MiB (1%)
    Language                    : Spanish
    Default                     : No
    Forced                      : No

    Text #2
    ID                          : 5
    Format                      : PGS
    Muxing mode                 : zlib
    Codec ID                    : S_HDMV/PGS
    Codec ID/Info               : Picture based subtitle format used on BDs/HD-DVDs
    Duration                    : 49 min 28 s
    Bit rate                    : 90 b/s
    Count of elements           : 10
    Stream size                 : 33.0 KiB (0%)
    Language                    : English
    Default                     : No
    Forced                      : No

    Text #3
    ID                          : 6
    Format                      : UTF-8
    Codec ID                    : S_TEXT/UTF8
    Codec ID/Info               : UTF-8 Plain Text
    Duration                    : 1 h 37 min
    Bit rate                    : 45 b/s
    Count of elements           : 1186
    Stream size                 : 32.6 KiB (0%)
    Language                    : Spanish
    Default                     : Yes
    Forced                      : No

    Menu
    00:00:00.000                : :Chapter 1
    00:02:00.704                : :Chapter 2
    00:08:32.679                : :Chapter 3
    00:09:45.335                : :Chapter 4
    00:13:47.660                : :Chapter 5
    00:16:09.177                : :Chapter 6
    00:17:36.430                : :Chapter 7
    00:20:21.470                : :Chapter 8
    00:25:01.959                : :Chapter 9
    00:27:36.280                : :Chapter 10
    00:31:10.077                : :Chapter 11
    00:36:23.348                : :Chapter 12
    00:38:00.653                : :Chapter 13
    00:39:42.547                : :Chapter 14
    00:44:34.297                : :Chapter 15
    00:49:15.911                : :Chapter 16
    00:53:17.986                : :Chapter 17
    00:58:34.553                : :Chapter 18
    00:59:58.136                : :Chapter 19
    01:03:16.001                : :Chapter 20
    01:06:36.868                : :Chapter 21
    01:09:51.062                : :Chapter 22
    01:12:26.592                : :Chapter 23
    01:15:55.676                : :Chapter 24
    01:18:52.394                : :Chapter 25
    01:21:24.671                : :Chapter 26
    01:23:08.984                : :Chapter 27
    01:27:08.849                : :Chapter 28
    01:30:55.283                : :Chapter 29
    01:32:14.863                : :Chapter 30
    01:35:08.203                : :Chapter 31
    01:40:00.244                : :Chapter 32

  • Peso: 4.86 GiB

Sinopsis

El Depredador  Full HD Latino Torrent Cuando el pequeño Rory (Jacob Tremblay) activa accidentalmente el regreso a la Tierra de los yautjas, desencadenará la vuelta de los cazadores más letales del universo, una especie extraterrestre caracterizada por convertir en su trofeo al resto de criaturas y por obtener su poder a través de la hibridación. Ahora, estos alienígenas han mejorado su ADN y ahora son aún más peligrosos, fuertes, inteligentes y mortales. Por eso, solo un grupo de exsoldados y una profesora de ciencias podrán evitar el fin de la humanidad.

Shane Black (Dos buenos tipos, Iron Man 3) dirige este reinicio sobre el famoso y letal alienígena que nació en Depredador (1987), el clásico de ciencia ficción dirigido por John McTiernan y que protagonizó Arnold Schwarzenegger. Black co-escribe el libreto junto al guionista Fred Dekker (RoboCop 3Una pandilla alucinante). El reparto artístico del filme está formado por los actores Boyd Holbrook (Logan, La venganza de Jane), Olivia Munn (Fiesta de empresa, X-Men: Apocalipsis), Alfie Allen (Juego de tronos, John Wick (Otro día para matar)), Keegan-Michael Key (Archer, ¿Tenía que ser él?), Sterling K. Brown (Black Panther, American Crime Story), Trevante Rhodes (Moonlight, If Loving You Is Wrong), Edward James Olmos (Blade Runner 2049, Agentes de S.H.I.E.L.D.), Thomas Jane (Somnia: Dentro de tus sueños, La niebla) y el joven Jacob Tremblay (Wonder, La habitación).

Ficha técnica

Video trailer de la película

Enlaces de descarga

Rip de Bluray

Descargar El Depredador (2018) Full 1080p Latino ( PLACEBO)




Aportes de DPeliculasHDmega la pass es:dpeliculashdmega.org Aportes de CinemaniaHD la pass es:cinemaniahdd.com

Películas relacionadas

  • The Dead Lands (2014) 1080p Latino

    2014
    The Dead Lands (2014) 1080p Latino

    0.0 1h 47m 2014

    Tras presenciar cómo su familia es masacrada, Hongi, adolescente hijo de jefe tribal, acudirá a la...

    Director: Toa Fraser

    Género: Acción

    Actores: Xavier Horan

  • Terremoto (2018) Full 1080p Subtitulado

    2018
    Terremoto (2018) Full 1080p Subtitulado

    3.7 1h 46m 2018

    En 1904, un terremoto de magnitud 5,4 sacudió Oslo con el epicentro en “Oslo Graben” bajo la capital...

    Director: John Andreas Andersen

    Género: Aventura

    Actores: Tina Schei

  • Bumblebee (2018) 1080p Latino

    2018
    Bumblebee (2018) 1080p Latino

    5.0 1h 54m 2018

    Sexta entrega de la saga 'Transformers', esta vez centrada en el "hermano pequeño" de los Autobots,...

    Director: Travis Knight

    Género: Acción

    Actores: Yianni Apostolopolous

  • Bumbeblee (2018) Web-DL 4K HDR 2160p Latino

    2018
    Bumbeblee (2018) Web-DL 4K HDR 2160p Latino

    5.0 1h 54m 2018

    Sexta entrega de la saga 'Transformers', esta vez centrada en el "hermano pequeño" de los Autobots,...

    Director: Travis Knight

    Género: Acción

    Actores: Yianni Apostolopolous

Comentarios 2
  • Leomardo - 15 diciembre, 2018

    Los enlaces de google no sirve, tampoco puedo aceder a los mismo para crear copias, y el torren no se puede bajar

    • dpelis - 16 diciembre, 2018

      debe copiar el link del torrent y agregar manual al utorrent