×

¿Problemas para descargar con Mozilla, EDGE? Deshabilita la opción "Abrir vinculos en una pestaña nueva" tal como lo muestra ésta imagen.

El cuento de las comadrejas (2019) REMUX 1080p Latino

744 vistas

Información de El cuento de las comadrejas (2019) REMUX 1080p Latino

Datos de la película

  • Calidad: Full 1080p
  • Audio: Español Latino DTS 5.1 BLURAY
  • Subtitulos: No
  • Resolución: 1920x1080p
  • Formato: MKV
  • Codec: H.264
  • Encoder: Melkor
  • Mediainfo: Clic para Mostrar Datos Ver
  • El Cuento De Las Comadrejas (2019) REMUX 1080p Latino.mkv
    Format                      : Matroska
    Format version              : Version 4
    File size                   : 22.6 GiB
    Duration                    : 2 h 8 min
    Overall bit rate mode       : Variable
    Overall bit rate            : 25.0 Mb/s
    Movie name                  : El Cuento De Las Comadrejas (2019) CinemaniaHDD.Net
    Encoded date                : UTC 2022-01-12 04:20:31
    Writing application         : mkvmerge v56.1.0 ('My Friend') 64-bit
    Writing library             : libebml v1.4.2 + libmatroska v1.6.4
    Attachments                 : CINEMANIAHD.png

    Video
    ID                          : 1
    ID in the original source m : 4113 (0x1011)
    Format                      : AVC
    Format/Info                 : Advanced Video Codec
    Format profile              : High@L4.1
    Format settings             : CABAC / 4 Ref Frames
    Format settings, CABAC      : Yes
    Format settings, Reference  : 4 frames
    Format settings, GOP        : M=3, N=30
    Codec ID                    : V_MPEG4/ISO/AVC
    Duration                    : 2 h 8 min
    Bit rate mode               : Variable
    Bit rate                    : 20.0 Mb/s
    Maximum bit rate            : 26.4 Mb/s
    Width                       : 1 920 pixels
    Height                      : 1 080 pixels
    Display aspect ratio        : 16:9
    Frame rate mode             : Constant
    Frame rate                  : 23.976 (24000/1001) FPS
    Standard                    : NTSC
    Color space                 : YUV
    Chroma subsampling          : 4:2:0
    Bit depth                   : 8 bits
    Scan type                   : Progressive
    Bits/(Pixel*Frame)          : 0.403
    Stream size                 : 18.0 GiB (80%)
    Title                       : REMUX HD1080p [CinemaniaHDD]
    Default                     : Yes
    Forced                      : No
    Color range                 : Limited
    Color primaries             : BT.709
    Transfer characteristics    : BT.709
    Matrix coefficients         : BT.709
    Original source medium      : Blu-ray

    Audio #1
    ID                          : 2
    ID in the original source m : 4352 (0x1100)
    Format                      : DTS XLL
    Format/Info                 : Digital Theater Systems
    Commercial name             : DTS-HD Master Audio
    Codec ID                    : A_DTS
    Duration                    : 2 h 8 min
    Bit rate mode               : Variable
    Bit rate                    : 3 487 kb/s
    Channel(s)                  : 6 channels
    Channel layout              : C L R Ls Rs LFE
    Sampling rate               : 48.0 kHz
    Frame rate                  : 93.750 FPS (512 SPF)
    Bit depth                   : 24 bits
    Compression mode            : Lossless
    Stream size                 : 3.14 GiB (14%)
    Title                       : Español Latino [CinemaniaHDD]
    Language                    : Spanish
    Default                     : No
    Forced                      : No
    Original source medium      : Blu-ray

    Audio #2
    ID                          : 3
    Format                      : DTS
    Format/Info                 : Digital Theater Systems
    Codec ID                    : A_DTS
    Duration                    : 2 h 8 min
    Bit rate mode               : Constant
    Bit rate                    : 1 509 kb/s
    Channel(s)                  : 6 channels
    Channel layout              : C L R Ls Rs LFE
    Sampling rate               : 48.0 kHz
    Frame rate                  : 93.750 FPS (512 SPF)
    Bit depth                   : 24 bits
    Compression mode            : Lossy
    Stream size                 : 1.36 GiB (6%)
    Title                       : Español Latino Core DTS [CinemaniaHDD]
    Default                     : Yes
    Forced                      : Yes

    Menu
    00:00:00.000                : Chapter 01
    00:00:03.170                : Chapter 02
    00:19:55.569                : Chapter 03
    00:39:01.548                : Chapter 04
    01:05:16.579                : Chapter 05
    01:22:43.125                : Chapter 06
    01:40:59.845                : Chapter 07

  • Peso: 22.6 GiB

Sinopsis

Descargar El cuento de las comadrejas (2019) REMUX 1080p Latino. Una bella estrella de la época dorada del cine, un actor en el ocaso de su vida, un escritor cinematográfico frustrado y un viejo director hacen lo imposible por conservar el mundo que han creado en una vieja mansión ante la llegada de dos jóvenes que presentan una amenaza que lo puede poner todo en peligro.

Nota: Disponible Solo Para VIP!!!

Ficha técnica

Video trailer de la película

Enlaces de descarga

Rip de Bluray

Descargar El cuento de las comadrejas (2019) REMUX 1080p Latino


Aportes de DPeliculasHDmega la pass es:dpeliculashdmega.org Aportes de CinemaniaHD la pass es:cinemaniahdd.com
Guardado en : Comedia , Misterio , Remux

Películas relacionadas

descargar El cuento de las comadrejas (2019) REMUX 1080p Latino Full 1080p 1080p gratis, El cuento de las comadrejas (2019) REMUX 1080p Latino Full 1080p mega 1 link, El cuento de las comadrejas (2019) REMUX 1080p Latino Full 1080p pelicula completa, descargar El cuento de las comadrejas (2019) REMUX 1080p Latino Full 1080p gratis en mega.

El cuento de las comadrejas (2019) REMUX 1080p Latino pelicula full hd, El cuento de las comadrejas (2019) REMUX 1080p Latino mega latino, El cuento de las comadrejas (2019) REMUX 1080p Latino 4k latino, El cuento de las comadrejas (2019) REMUX 1080p Latino pelicula completa, El cuento de las comadrejas (2019) REMUX 1080p Latino descargar gratis, descargar El cuento de las comadrejas (2019) REMUX 1080p Latino pelicula latino, El cuento de las comadrejas (2019) REMUX 1080p Latino 1 link mega, El cuento de las comadrejas (2019) REMUX 1080p Latino 1 link google drive, El cuento de las comadrejas (2019) REMUX 1080p Latino hd 1080p latino.
Comentarios 0