×

¿Problemas para descargar con Mozilla, EDGE? Deshabilita la opción "Abrir vinculos en una pestaña nueva" tal como lo muestra ésta imagen.

El cuento de las comadrejas (2019) PLACEBO 1080p Latino

534 vistas

Información de El cuento de las comadrejas (2019) PLACEBO 1080p Latino

Datos de la película

  • Calidad: Full 1080p
  • Audio: Español DTS 5.1 BLURAY
  • Subtitulos: No
  • Resolución: 1920x1080p
  • Formato: MKV
  • Codec: H.264
  • Encoder: Melkor
  • Mediainfo: Clic para Mostrar Datos Ver
  • El Cuento De Las Comadrejas (2019) PLACEBO 1080p Latino.mkv
    Format                      : Matroska
    Format version              : Version 4
    File size                   : 5.68 GiB
    Duration                    : 2 h 8 min
    Overall bit rate            : 6 304 kb/s
    Movie name                  : El Cuento De Las Comadrejas (2019) CinemaniaHDD.Net
    Encoded date                : UTC 2022-01-14 07:15:20
    Writing application         : mkvmerge v56.1.0 ('My Friend') 64-bit
    Writing library             : libebml v1.4.2 + libmatroska v1.6.4
    Attachments                 : CINEMANIAHD.png

    Video
    ID                          : 1
    Format                      : AVC
    Format/Info                 : Advanced Video Codec
    Format profile              : High@L4.1
    Format settings             : CABAC / 4 Ref Frames
    Format settings, CABAC      : Yes
    Format settings, Reference  : 4 frames
    Codec ID                    : V_MPEG4/ISO/AVC
    Duration                    : 2 h 8 min
    Bit rate                    : 4 793 kb/s
    Width                       : 1 920 pixels
    Height                      : 1 080 pixels
    Display aspect ratio        : 16:9
    Frame rate mode             : Constant
    Frame rate                  : 23.976 (24000/1001) FPS
    Color space                 : YUV
    Chroma subsampling          : 4:2:0
    Bit depth                   : 8 bits
    Scan type                   : Progressive
    Bits/(Pixel*Frame)          : 0.096
    Stream size                 : 4.32 GiB (76%)
    Title                       : Full HD1080p [CinemaniaHDD]
    Writing library             : x264 core 163 r3059 b684ebe0
    Encoding settings           : cabac=1 / ref=4 / deblock=1:0:0 / analyse=0x3:0x133 / me=tesa / subme=11 / psy=1 / psy_rd=1.00:0.00 / mixed_ref=1 / me_range=24 / chroma_me=1 / trellis=2 / 8x8dct=1 / cqm=0 / deadzone=21,11 / fast_pskip=0 / chroma_qp_offset=-2 / threads=24 / lookahead_threads=6 / sliced_threads=0 / nr=0 / decimate=1 / interlaced=0 / bluray_compat=0 / constrained_intra=0 / bframes=16 / b_pyramid=2 / b_adapt=2 / b_bias=0 / direct=3 / weightb=1 / open_gop=0 / weightp=2 / keyint=240 / keyint_min=24 / scenecut=40 / intra_refresh=0 / rc_lookahead=60 / rc=crf / mbtree=1 / crf=19.0 / qcomp=0.60 / qpmin=0 / qpmax=69 / qpstep=4 / vbv_maxrate=62500 / vbv_bufsize=78125 / crf_max=0.0 / nal_hrd=none / filler=0 / ip_ratio=1.40 / aq=1:1.00
    Default                     : Yes
    Forced                      : Yes
    Color range                 : Limited
    Color primaries             : BT.709
    Transfer characteristics    : BT.709
    Matrix coefficients         : BT.709

    Audio
    ID                          : 2
    Format                      : DTS
    Format/Info                 : Digital Theater Systems
    Codec ID                    : A_DTS
    Duration                    : 2 h 8 min
    Bit rate mode               : Constant
    Bit rate                    : 1 509 kb/s
    Channel(s)                  : 6 channels
    Channel layout              : C L R Ls Rs LFE
    Sampling rate               : 48.0 kHz
    Frame rate                  : 93.750 FPS (512 SPF)
    Bit depth                   : 24 bits
    Compression mode            : Lossy
    Stream size                 : 1.36 GiB (24%)
    Title                       : Español Latino [CinemaniaHDD]
    Language                    : Spanish
    Default                     : Yes
    Forced                      : Yes

    Menu
    00:00:00.000                : Chapter 01
    00:00:03.170                : Chapter 02
    00:19:55.569                : Chapter 03
    00:39:01.548                : Chapter 04
    01:05:16.579                : Chapter 05
    01:22:43.125                : Chapter 06
    01:40:59.845                : Chapter 07

  • Peso: 5.68 GiB

Sinopsis

Descargar El cuento de las comadrejas (2019) PLACEBO 1080p Latino. Una bella estrella de la época dorada del cine, un actor en el ocaso de su vida, un escritor cinematográfico frustrado y un viejo director hacen lo imposible por conservar el mundo que han creado en una vieja mansión ante la llegada de dos jóvenes que presentan una amenaza que lo puede poner todo en peligro.

Ficha técnica

Video trailer de la película

Enlaces de descarga

Rip de Bluray

Descargar El cuento de las comadrejas (2019) PLACEBO 1080p Latino




Aportes de DPeliculasHDmega la pass es:dpeliculashdmega.org Aportes de CinemaniaHD la pass es:cinemaniahdd.com

Películas relacionadas

  • Hombre de familia (2000) REMUX 1080p Latino

    Hombre de familia (2000) REMUX 1080p Latino

    2000
    Hombre de familia (2000) REMUX 1080p Latino

    2h 1m 2000

    Descargar Hombre de familia (2000) REMUX 1080p Latino. Jack Campbell es un egocéntrico broker de Wall...

    Director: Robert Schroer

    Género: Comedia

    Actores: Wass Stevens

  • Te Amo Brother (2009) REMUX 1080p Latino

    Te Amo Brother (2009) REMUX 1080p Latino

    2009
    Te Amo Brother (2009) REMUX 1080p Latino

    1h 45m 2009

    Descargar Te Amo Brother (2009) REMUX 1080p Latino. Peter Klaven (Paul Rudd) es un joven que vive muy...

    Director: Scott Robertson

    Género: Comedia

    Actores: Vicki Davis

  • Asústame (2020) HD 1080p Latino

    Asústame (2020) HD 1080p Latino

    2020
    Asústame (2020) HD 1080p Latino

    1h 44m 2020

    Descargar Asústame (2020) HD 1080p Latino. Durante un corte de energía, dos extraños cuentan historias...

    Director: Josh Ruben

    Género: Comedia

    Actores: Rebecca Drysdale

descargar El cuento de las comadrejas (2019) PLACEBO 1080p Latino Full 1080p 1080p gratis, El cuento de las comadrejas (2019) PLACEBO 1080p Latino Full 1080p mega 1 link, El cuento de las comadrejas (2019) PLACEBO 1080p Latino Full 1080p pelicula completa, descargar El cuento de las comadrejas (2019) PLACEBO 1080p Latino Full 1080p gratis en mega.

El cuento de las comadrejas (2019) PLACEBO 1080p Latino pelicula full hd, El cuento de las comadrejas (2019) PLACEBO 1080p Latino mega latino, El cuento de las comadrejas (2019) PLACEBO 1080p Latino 4k latino, El cuento de las comadrejas (2019) PLACEBO 1080p Latino pelicula completa, El cuento de las comadrejas (2019) PLACEBO 1080p Latino descargar gratis, descargar El cuento de las comadrejas (2019) PLACEBO 1080p Latino pelicula latino, El cuento de las comadrejas (2019) PLACEBO 1080p Latino 1 link mega, El cuento de las comadrejas (2019) PLACEBO 1080p Latino 1 link google drive, El cuento de las comadrejas (2019) PLACEBO 1080p Latino hd 1080p latino.
Comentarios 0