×

¿Problemas para descargar con Mozilla, EDGE? Deshabilita la opción "Abrir vinculos en una pestaña nueva" tal como lo muestra ésta imagen.

El cuento de las comadrejas (2019) HD 1080p Latino

376 vistas

Información de El cuento de las comadrejas (2019) HD 1080p Latino

Datos de la película

  • Calidad: 1080p
  • Audio: Español AC3 5.1 BLURAY
  • Subtitulos: No
  • Resolución: 1920x808p
  • Formato: MKV
  • Codec: H.264
  • Encoder: Melkor
  • Mediainfo: Clic para Mostrar Datos Ver
  • El Cuento De Las Comadrejas (2019) HD 1080p Latino.mkv
    Format                      : Matroska
    Format version              : Version 4
    File size                   : 3.54 GiB
    Duration                    : 2 h 8 min
    Overall bit rate            : 3 930 kb/s
    Movie name                  : El Cuento De Las Comadrejas (2019) CinemaniaHDD.Net
    Encoded date                : UTC 2022-01-14 07:13:50
    Writing application         : mkvmerge v56.1.0 ('My Friend') 64-bit
    Writing library             : libebml v1.4.2 + libmatroska v1.6.4

    Video
    ID                          : 1
    Format                      : AVC
    Format/Info                 : Advanced Video Codec
    Format profile              : High@L4.1
    Format settings             : CABAC / 5 Ref Frames
    Format settings, CABAC      : Yes
    Format settings, Reference  : 5 frames
    Codec ID                    : V_MPEG4/ISO/AVC
    Duration                    : 2 h 8 min
    Bit rate                    : 3 500 kb/s
    Width                       : 1 920 pixels
    Height                      : 808 pixels
    Display aspect ratio        : 2.40:1
    Frame rate mode             : Constant
    Frame rate                  : 23.976 (24000/1001) FPS
    Color space                 : YUV
    Chroma subsampling          : 4:2:0
    Bit depth                   : 8 bits
    Scan type                   : Progressive
    Bits/(Pixel*Frame)          : 0.094
    Stream size                 : 3.14 GiB (89%)
    Title                       : HD1080p [CinemaniaHDD]
    Writing library             : x264 core 163 r3059 b684ebe0
    Encoding settings           : cabac=1 / ref=5 / deblock=1:-1:-1 / analyse=0x3:0x133 / me=umh / subme=9 / psy=1 / psy_rd=1.00:0.15 / mixed_ref=1 / me_range=16 / chroma_me=1 / trellis=2 / 8x8dct=1 / cqm=0 / deadzone=21,11 / fast_pskip=1 / chroma_qp_offset=-3 / threads=24 / lookahead_threads=2 / sliced_threads=0 / nr=0 / decimate=1 / interlaced=0 / bluray_compat=0 / constrained_intra=0 / bframes=3 / b_pyramid=2 / b_adapt=2 / b_bias=0 / direct=3 / weightb=1 / open_gop=0 / weightp=2 / keyint=240 / keyint_min=24 / scenecut=40 / intra_refresh=0 / rc_lookahead=60 / rc=abr / mbtree=1 / bitrate=3500 / ratetol=1.0 / qcomp=0.60 / qpmin=0 / qpmax=69 / qpstep=4 / vbv_maxrate=62500 / vbv_bufsize=78125 / nal_hrd=none / filler=0 / ip_ratio=1.40 / aq=1:1.00
    Default                     : Yes
    Forced                      : Yes
    Color range                 : Limited
    Color primaries             : BT.709
    Transfer characteristics    : BT.709
    Matrix coefficients         : BT.709

    Audio
    ID                          : 2
    Format                      : AC-3
    Format/Info                 : Audio Coding 3
    Commercial name             : Dolby Digital
    Codec ID                    : A_AC3
    Duration                    : 2 h 8 min
    Bit rate mode               : Constant
    Bit rate                    : 448 kb/s
    Channel(s)                  : 6 channels
    Channel layout              : L R C LFE Ls Rs
    Sampling rate               : 48.0 kHz
    Frame rate                  : 31.250 FPS (1536 SPF)
    Compression mode            : Lossy
    Delay relative to video     : -5 ms
    Stream size                 : 413 MiB (11%)
    Title                       : Español Latino [CinemaniaHDD]
    Language                    : Spanish
    Service kind                : Complete Main
    Default                     : Yes
    Forced                      : Yes

    Menu
    00:00:00.000                : :Chapter 1
    00:00:03.253                : :Chapter 2
    00:19:55.569                : :Chapter 3
    00:39:01.548                : :Chapter 4
    01:05:16.579                : :Chapter 5
    01:22:43.125                : :Chapter 6
    01:40:59.929                : :Chapter 7

  • Peso: 3.54 GiB

Sinopsis

Descargar El cuento de las comadrejas (2019) HD 1080p Latino. Una bella estrella de la época dorada del cine, un actor en el ocaso de su vida, un escritor cinematográfico frustrado y un viejo director hacen lo imposible por conservar el mundo que han creado en una vieja mansión ante la llegada de dos jóvenes que presentan una amenaza que lo puede poner todo en peligro.

Ficha técnica

Video trailer de la película

Enlaces de descarga

Rip de Bluray

Descargar El cuento de las comadrejas (2019) HD 1080p Latino




Aportes de DPeliculasHDmega la pass es:dpeliculashdmega.org Aportes de CinemaniaHD la pass es:cinemaniahdd.com
Guardado en : Comedia , HD 1080p , Misterio

Películas relacionadas

  • Un mundo extraño (2022) HD BDRip 1080p Latino

    Un mundo extraño (2022) HD BDRip 1080p Latino

    2022
    Un mundo extraño (2022) HD BDRip 1080p Latino

    1h 42m 2022

    Descargar Un mundo extraño (2022) HD BDRip 1080p Latino. Los Clades son una familia conocida en todo...

    Director: Thai Bettistea

    Género: Animación

    Actores: Reed Buck

  • Juego de espías (2001) 1080p Latino

    Juego de espías (2001) 1080p Latino

    2001
    Juego de espías (2001) 1080p Latino

    2h 6m 2001

    Descargar Juego de espías (2001) 1080p Latino. Corre el año 1991, y al veterano agente de la CIA Nathan...

    Director: Tony Scott

    Género: Acción

    Actores: Zsolt Zágoni

  • Hombre de familia (2000) REMUX 1080p Latino

    Hombre de familia (2000) REMUX 1080p Latino

    2000
    Hombre de familia (2000) REMUX 1080p Latino

    2h 1m 2000

    Descargar Hombre de familia (2000) REMUX 1080p Latino. Jack Campbell es un egocéntrico broker de Wall...

    Director: Robert Schroer

    Género: Comedia

    Actores: Wass Stevens

descargar El cuento de las comadrejas (2019) HD 1080p Latino 1080p 1080p gratis, El cuento de las comadrejas (2019) HD 1080p Latino 1080p mega 1 link, El cuento de las comadrejas (2019) HD 1080p Latino 1080p pelicula completa, descargar El cuento de las comadrejas (2019) HD 1080p Latino 1080p gratis en mega.

El cuento de las comadrejas (2019) HD 1080p Latino pelicula full hd, El cuento de las comadrejas (2019) HD 1080p Latino mega latino, El cuento de las comadrejas (2019) HD 1080p Latino 4k latino, El cuento de las comadrejas (2019) HD 1080p Latino pelicula completa, El cuento de las comadrejas (2019) HD 1080p Latino descargar gratis, descargar El cuento de las comadrejas (2019) HD 1080p Latino pelicula latino, El cuento de las comadrejas (2019) HD 1080p Latino 1 link mega, El cuento de las comadrejas (2019) HD 1080p Latino 1 link google drive, El cuento de las comadrejas (2019) HD 1080p Latino hd 1080p latino.
Comentarios 0