El conformista (1970) Full 1080p Latino

398 vistas
1 estrella2 estrellas3 estrellas4 estrellas5 estrellas (Ninguna valoración todavía)
Cargando…

Información de El conformista (1970) Full 1080p Latino

Datos de la película

  • Calidad: Full 1080p
  • Audio: Se especifica abajo de la Sinopsis
  • Subtitulos: Español Latino PGS - Ingles PGS
  • Resolución: 1920x1080p
  • Formato: MKV
  • Codec: H.264
  • Encoder: Dracarys
  • Mediainfo: Clic para Mostrar Datos Ver
  • Format                                   : Matroska
    Format version                           : Version 4 / Version 2
    File size                                : 5.36 GiB
    Duration                                 : 1 h 52 min
    Overall bit rate                         : 6 800 kb/s
    Movie name                               : CinemaniaHDD.net
    Encoded date                             : UTC 2018-08-09 02:36:17 / UTC 2018-08-01T11:24:20Z
    Writing application                      : mkvmerge v15.0.0 ('Duel with the Devil') 64-bit
    Writing library                          : libebml v1.3.5 + libmatroska v1.4.5 / Lavf57.7.2

    Video
    ID                                       : 1
    Format                                   : AVC
    Format/Info                              : Advanced Video Codec
    Format profile                           : High@L4.1
    Format settings                          : CABAC / 4 Ref Frames
    Format settings, CABAC                   : Yes
    Format settings, RefFrames               : 4 frames
    Codec ID                                 : V_MPEG4/ISO/AVC
    Duration                                 : 1 h 52 min
    Bit rate                                 : 5 992 kb/s
    Width                                    : 1 920 pixels
    Height                                   : 1 080 pixels
    Display aspect ratio                     : 16:9
    Frame rate mode                          : Constant
    Frame rate                               : 23.976 (24000/1001) FPS
    Color space                              : YUV
    Chroma subsampling                       : 4:2:0
    Bit depth                                : 8 bits
    Scan type                                : Progressive
    Bits/(Pixel*Frame)                       : 0.121
    Stream size                              : 4.72 GiB (88%)
    Title                                    : El conformista (1970) Full 1080p Latino
    Writing library                          : x264 core 148 r2708 86b7198
    Encoding settings                        : cabac=1 / ref=4 / deblock=1:0:0 / analyse=0x3:0x133 / me=esa / subme=10 / psy=1 / psy_rd=1.00:0.00 / mixed_ref=1 / me_range=24 / chroma_me=1 / trellis=2 / 8x8dct=1 / cqm=0 / deadzone=21,11 / fast_pskip=1 / chroma_qp_offset=-2 / threads=34 / lookahead_threads=5 / sliced_threads=0 / nr=0 / decimate=1 / interlaced=0 / bluray_compat=0 / constrained_intra=0 / bframes=8 / b_pyramid=2 / b_adapt=2 / b_bias=0 / direct=3 / weightb=1 / open_gop=0 / weightp=2 / keyint=240 / keyint_min=24 / scenecut=40 / intra_refresh=0 / rc_lookahead=60 / rc=crf / mbtree=1 / crf=20.0 / qcomp=0.60 / qpmin=0 / qpmax=69 / qpstep=4 / vbv_maxrate=62500 / vbv_bufsize=78125 / crf_max=0.0 / nal_hrd=none / filler=0 / ip_ratio=1.40 / aq=1:1.00
    Language                                 : Italian
    Default                                  : Yes
    Forced                                   : No
    Color range                              : Limited
    Color primaries                          : BT.709
    Transfer characteristics                 : BT.709
    Matrix coefficients                      : BT.709
    Statistics Tags Issue                    : mkvmerge v15.0.0 ('Duel with the Devil') 64-bit 2018-08-09 02:36:17 / mkvmerge v15.0.0 ('Duel with the Devil') 64-bit 2018-08-09 02:36:17 / UTC 2018-08-01T11:24:20Z
    FromStats_BitRate                        : 6115401
    FromStats_Duration                       : 01:52:51.849000000
    FromStats_FrameCount                     : 162362
    FromStats_StreamSize                     : 5176571728

    Audio #1
    ID                                       : 2
    Format                                   : AC-3
    Format/Info                              : Audio Coding 3
    Format settings, Endianness              : Big
    Codec ID                                 : A_AC3
    Duration                                 : 1 h 52 min
    Bit rate mode                            : Constant
    Bit rate                                 : 224 kb/s
    Channel(s)                               : 2 channels
    Channel positions                        : Front: L R
    Sampling rate                            : 48.0 kHz
    Frame rate                               : 31.250 FPS (1536 SPF)
    Bit depth                                : 16 bits
    Compression mode                         : Lossy
    Delay relative to video                  : -5 ms
    Stream size                              : 181 MiB (3%)
    Language                                 : Spanish
    Service kind                             : Complete Main
    Default                                  : Yes
    Forced                                   : No
    Statistics Tags Issue                    : mkvmerge v15.0.0 ('Duel with the Devil') 64-bit 2018-08-09 02:36:17 / mkvmerge v15.0.0 ('Duel with the Devil') 64-bit 2018-08-09 02:36:17 / UTC 2018-08-01T11:24:20Z
    FromStats_BitRate                        : 224000
    FromStats_Duration                       : 01:52:51.840000000
    FromStats_FrameCount                     : 211620
    FromStats_StreamSize                     : 189611520

    Audio #2
    ID                                       : 3
    Format                                   : AC-3
    Format/Info                              : Audio Coding 3
    Format settings, Endianness              : Big
    Codec ID                                 : A_AC3
    Duration                                 : 1 h 52 min
    Bit rate mode                            : Constant
    Bit rate                                 : 224 kb/s
    Channel(s)                               : 2 channels
    Channel positions                        : Front: L R
    Sampling rate                            : 48.0 kHz
    Frame rate                               : 31.250 FPS (1536 SPF)
    Bit depth                                : 16 bits
    Compression mode                         : Lossy
    Delay relative to video                  : -5 ms
    Stream size                              : 181 MiB (3%)
    Language                                 : Italian
    Service kind                             : Complete Main
    Default                                  : No
    Forced                                   : No
    Statistics Tags Issue                    : mkvmerge v15.0.0 ('Duel with the Devil') 64-bit 2018-08-09 02:36:17 / mkvmerge v15.0.0 ('Duel with the Devil') 64-bit 2018-08-09 02:36:17 / UTC 2018-08-01T11:24:20Z
    FromStats_BitRate                        : 224000
    FromStats_Duration                       : 01:52:51.840000000
    FromStats_FrameCount                     : 211620
    FromStats_StreamSize                     : 189611520

    Audio #3
    ID                                       : 4
    Format                                   : AC-3
    Format/Info                              : Audio Coding 3
    Format settings, Endianness              : Big
    Codec ID                                 : A_AC3
    Duration                                 : 1 h 52 min
    Bit rate mode                            : Constant
    Bit rate                                 : 224 kb/s
    Channel(s)                               : 2 channels
    Channel positions                        : Front: L R
    Sampling rate                            : 48.0 kHz
    Frame rate                               : 31.250 FPS (1536 SPF)
    Bit depth                                : 16 bits
    Compression mode                         : Lossy
    Delay relative to video                  : -5 ms
    Stream size                              : 181 MiB (3%)
    Language                                 : English
    Service kind                             : Complete Main
    Default                                  : No
    Forced                                   : No
    Statistics Tags Issue                    : mkvmerge v15.0.0 ('Duel with the Devil') 64-bit 2018-08-09 02:36:17 / mkvmerge v15.0.0 ('Duel with the Devil') 64-bit 2018-08-09 02:36:17 / UTC 2018-08-01T11:24:20Z
    FromStats_BitRate                        : 224000
    FromStats_Duration                       : 01:52:51.840000000
    FromStats_FrameCount                     : 211620
    FromStats_StreamSize                     : 189611520

    Text #1
    ID                                       : 5
    Format                                   : PGS
    Muxing mode                              : zlib
    Codec ID                                 : S_HDMV/PGS
    Codec ID/Info                            : Picture based subtitle format used on BDs/HD-DVDs
    Language                                 : English
    Default                                  : No
    Forced                                   : No
    Statistics Tags Issue                    : mkvmerge v15.0.0 ('Duel with the Devil') 64-bit 2018-08-09 02:36:17 / mkvmerge v15.0.0 ('Duel with the Devil') 64-bit 2018-08-09 02:36:17 / UTC 2018-08-01T11:24:20Z
    FromStats_BitRate                        : 31826
    FromStats_Duration                       : 01:47:10.549000000
    FromStats_FrameCount                     : 2459
    FromStats_StreamSize                     : 25583135

    Text #2
    ID                                       : 6
    Format                                   : PGS
    Muxing mode                              : zlib
    Codec ID                                 : S_HDMV/PGS
    Codec ID/Info                            : Picture based subtitle format used on BDs/HD-DVDs
    Language                                 : Spanish
    Default                                  : No
    Forced                                   : No
    Statistics Tags Issue                    : mkvmerge v15.0.0 ('Duel with the Devil') 64-bit 2018-08-09 02:36:17 / mkvmerge v15.0.0 ('Duel with the Devil') 64-bit 2018-08-09 02:36:17 / UTC 2018-08-01T11:24:20Z
    FromStats_BitRate                        : 30780
    FromStats_Duration                       : 00:04:23.179000000
    FromStats_FrameCount                     : 96
    FromStats_StreamSize                     : 1012588

    Menu
    00:00:00.000                             : :Chapter 1
    00:10:15.573                             : :Chapter 2
    00:15:52.618                             : :Chapter 3
    00:24:48.988                             : :Chapter 4
    00:34:05.335                             : :Chapter 5
    00:38:30.642                             : :Chapter 6
    00:46:48.597                             : :Chapter 7
    00:58:25.335                             : :Chapter 8
    01:09:46.933                             : :Chapter 9
    01:12:24.757                             : :Chapter 10
    01:28:11.536                             : :Chapter 11
    01:37:33.848                             : :Chapter 12

  • Peso: 5.36 GiB

Sinopsis

Cuando tenía trece años, Marcello Clerici le disparó a Lino, un adulto homosexual que intentó seducirlo. Años más tarde, Clerici es un ciudadano respetable, profesor de filosofía y va a casarse con Giulia. Pero ideológicamente Clerici es fascista, tiene contactos con el servicio secreto y se muestra dispuesto a combinar su luna de miel en París con un atentado contra un exiliado político italiano que había sido profesor suyo.

 

 

Latino AC3 2.0 BD  –  Italiano AC3 2.0 BD –  Ingles AC3 2.0 BD

Ficha técnica

Video trailer de la película

Enlaces de descarga

Rip de Bluray

Descargar El conformista (1970) Full 1080p Latino




Aportes de DPeliculasHDmega la pass es:dpeliculashdmega.org Aportes de CinemaniaHD la pass es:cinemaniahdd.com
Guardado en : Drama , FULL 1080p Plateadas

Películas relacionadas

  • La balada de Buster Scruggs (2018) NF 1080p Latino

    2018
    La balada de Buster Scruggs (2018) NF 1080p Latino

    0.0 2h 12m 2018

    Los siempre singulares Joel y Ethan Cohen escriben y dirigen esta antología de seis historias del Salvaje...

    Director: Joel Coen

    Género: Comedia

    Actores: Zoe Kazan

  • La pequeña brujita (2018) AMZN 1080p Latino

    2018
    La pequeña brujita (2018) AMZN 1080p Latino

    5.0 1h 43m 2018

    Descargar La pequeña brujita (2018) AMZN 1080p Latino, Mega, Google Drive. La pequeña bruja sólo tiene...

    Director: Mike Schaerer

    Género: Comedia

    Actores: Verena Bosshard

  • Puzzle (2018) Web-DL 1080p Latino

    2018
    Puzzle (2018) Web-DL 1080p Latino

    0.0 1h 43m 2018

    Descargar Puzzle (2018) Web-DL 1080p Latino; Mega, Google Drive. Una mujer acude a Atlantic City para...

    Director: Marc Turtletaub

    Género: Drama

    Actores: Myrna Cabello

Comentarios 0