×

¿Problemas para descargar con Mozilla, EDGE? Deshabilita la opción "Abrir vinculos en una pestaña nueva" tal como lo muestra ésta imagen.

El color púrpura (2023) WEB-DL 1080p Latino

125 vistas

Información de El color púrpura (2023) WEB-DL 1080p Latino

Datos de la película

  • Calidad: WEBDL
  • Audio: Español Latino AC3 5.1 WEB-DL - Ingles AC3 5.1 WEB-DL
  • Subtitulos: Español Latino SRT- FORZADOS SRT
  • Resolución: 1920x1080p
  • Formato: MKV
  • Codec: H.264
  • Encoder: Melkor
  • Mediainfo: Clic para Mostrar Datos Ver
  • The Color Purple (2023) WEB 1080p Latino.mkv
    Format                      : Matroska
    Format version              : Version 4
    File size                   : 8.93 GiB
    Duration                    : 2 h 20 min
    Overall bit rate            : 9 077 kb/s
    Movie name                  : The Color Purple (2023) CinemaniaHDD.Net
    Encoded date                : UTC 2024-01-17 07:24:03
    Writing application         : mkvmerge v56.1.0 ('My Friend') 64-bit
    Writing library             : libebml v1.4.2 + libmatroska v1.6.4
    Attachments                 : CINEMANIAHD.png
    Site                        : CinemaniaHDD.Net
    Uploader                    : Melkor

    Video
    ID                          : 1
    Format                      : AVC
    Format/Info                 : Advanced Video Codec
    Format profile              : High@L4
    Format settings             : CABAC / 4 Ref Frames
    Format settings, CABAC      : Yes
    Format settings, Reference  : 4 frames
    Codec ID                    : V_MPEG4/ISO/AVC
    Duration                    : 2 h 20 min
    Bit rate                    : 8 000 kb/s
    Width                       : 1 920 pixels
    Height                      : 1 080 pixels
    Display aspect ratio        : 16:9
    Frame rate mode             : Constant
    Frame rate                  : 23.976 (24000/1001) FPS
    Color space                 : YUV
    Chroma subsampling          : 4:2:0
    Bit depth                   : 8 bits
    Scan type                   : Progressive
    Bits/(Pixel*Frame)          : 0.161
    Stream size                 : 7.79 GiB (87%)
    Title                       : Web HD1080p [CinemaniaHDD]
    Writing library             : x264 core 164 r3094 bfc87b7
    Encoding settings           : cabac=1 / ref=4 / deblock=1:-1:-1 / analyse=0x3:0x133 / me=umh / subme=9 / psy=1 / psy_rd=1.00:0.15 / mixed_ref=1 / me_range=16 / chroma_me=1 / trellis=2 / 8x8dct=1 / cqm=0 / deadzone=21,11 / fast_pskip=1 / chroma_qp_offset=-3 / threads=12 / lookahead_threads=1 / sliced_threads=0 / nr=0 / decimate=1 / interlaced=0 / bluray_compat=0 / stitchable=1 / constrained_intra=0 / bframes=3 / b_pyramid=2 / b_adapt=2 / b_bias=0 / direct=3 / weightb=1 / open_gop=0 / weightp=2 / keyint=48 / keyint_min=4 / scenecut=0 / intra_refresh=0 / rc_lookahead=48 / rc=abr / mbtree=1 / bitrate=8000 / ratetol=1.0 / qcomp=0.60 / qpmin=0 / qpmax=69 / qpstep=4 / vbv_maxrate=8800 / vbv_bufsize=16000 / nal_hrd=none / filler=0 / ip_ratio=1.40 / aq=1:1.00
    Language                    : English
    Default                     : Yes
    Forced                      : Yes
    Color range                 : Limited
    Color primaries             : BT.709
    Transfer characteristics    : BT.709
    Matrix coefficients         : BT.709

    Audio #1
    ID                          : 2
    Format                      : AC-3
    Format/Info                 : Audio Coding 3
    Commercial name             : Dolby Digital
    Codec ID                    : A_AC3
    Duration                    : 2 h 20 min
    Bit rate mode               : Constant
    Bit rate                    : 384 kb/s
    Channel(s)                  : 6 channels
    Channel layout              : L R C LFE Ls Rs
    Sampling rate               : 48.0 kHz
    Frame rate                  : 31.250 FPS (1536 SPF)
    Compression mode            : Lossy
    Stream size                 : 387 MiB (4%)
    Title                       : Español Latino [CinemaniaHDD]
    Language                    : Spanish
    Service kind                : Complete Main
    Default                     : Yes
    Forced                      : Yes

    Audio #2
    ID                          : 3
    Format                      : E-AC-3 JOC
    Format/Info                 : Enhanced AC-3 with Joint Object Coding
    Commercial name             : Dolby Digital Plus with Dolby Atmos
    Codec ID                    : A_EAC3
    Duration                    : 2 h 20 min
    Bit rate mode               : Constant
    Bit rate                    : 768 kb/s
    Channel(s)                  : 6 channels
    Channel layout              : L R C LFE Ls Rs
    Sampling rate               : 48.0 kHz
    Frame rate                  : 31.250 FPS (1536 SPF)
    Compression mode            : Lossy
    Delay relative to video     : 1 ms
    Stream size                 : 774 MiB (8%)
    Title                       : Ingles [CinemaniaHDD]
    Language                    : English
    Service kind                : Complete Main
    Default                     : No
    Forced                      : No
    Complexity index            : 16
    Number of dynamic objects   : 15
    Bed channel count           : 1 channel
    Bed channel configuration   : LFE

    Text #1
    ID                          : 4
    Format                      : UTF-8
    Codec ID                    : S_TEXT/UTF8
    Codec ID/Info               : UTF-8 Plain Text
    Duration                    : 2 h 19 min
    Bit rate                    : 17 b/s
    Count of elements           : 512
    Stream size                 : 17.4 KiB (0%)
    Title                       : Forzados-SRT [CinemaniaHDD]
    Language                    : Spanish
    Default                     : Yes
    Forced                      : Yes

    Text #2
    ID                          : 5
    Format                      : UTF-8
    Codec ID                    : S_TEXT/UTF8
    Codec ID/Info               : UTF-8 Plain Text
    Duration                    : 2 h 19 min
    Bit rate                    : 48 b/s
    Count of elements           : 1659
    Stream size                 : 50.0 KiB (0%)
    Title                       : Español-SRT [CinemaniaHDD]
    Language                    : Spanish
    Default                     : No
    Forced                      : No

    Text #3
    ID                          : 6
    Format                      : UTF-8
    Codec ID                    : S_TEXT/UTF8
    Codec ID/Info               : UTF-8 Plain Text
    Duration                    : 2 h 14 min
    Bit rate                    : 60 b/s
    Count of elements           : 1803
    Stream size                 : 59.2 KiB (0%)
    Title                       : Ingles-SRT [CinemaniaHDD]
    Language                    : English
    Default                     : No
    Forced                      : No

    Menu
    00:00:00.000                : Chapter 01
    00:09:35.158                : Chapter 02
    00:20:33.149                : Chapter 03
    00:28:41.721                : Chapter 04
    00:39:07.722                : Chapter 05
    00:49:05.236                : Chapter 06
    00:58:33.763                : Chapter 07
    01:09:47.354                : Chapter 08
    01:18:26.915                : Chapter 09
    01:29:26.783                : Chapter 10
    01:38:46.426                : Chapter 11
    01:49:53.635                : Chapter 12
    02:02:12.916                : Chapter 13
    02:12:08.595                : Chapter 14

  • Peso: 8.93 GiB

Sinopsis

Descargar El color púrpura (2023) WEB-DL 1080p Latino. Adaptación musical de la novela de Alice Walker sobre las luchas de toda la vida de una mujer afroamericana que vive en el sur a principios del siglo XX.

Ficha técnica

Video trailer de la película

Enlaces de descarga

Rip de Bluray

Descargar El color púrpura (2023) WEB-DL 1080p Latino




Aportes de DPeliculasHDmega la pass es:dpeliculashdmega.org Aportes de CinemaniaHD la pass es:cinemaniahdd.com Aportes recientes:cinemaniahdd.net
Guardado en : Drama

Películas relacionadas

  • El Oso (2022) Temporada 2 WEB-DL 1080p Latino

    El Oso (2022) Temporada 2 WEB-DL 1080p Latino

    2022
    El Oso (2022) Temporada 2 WEB-DL 1080p Latino

    0h 0m 2022

    Descargar El Oso (2022) Temporada 2 WEB-DL 1080p Latino. Carmy, un joven chef de alta cocina, vuelve...

    Director: Christopher Storer

    Género: Comedia

    Actores: Matty Matheson

  • El Oso (2022) Temporada 1 WEB-DL 1080p Latino

    El Oso (2022) Temporada 1 WEB-DL 1080p Latino

    2022
    El Oso (2022) Temporada 1 WEB-DL 1080p Latino

    0h 0m 2022

    Descargar El Oso (2022) Temporada 1 WEB-DL 1080p Latino. Carmy, un joven chef de alta cocina, vuelve...

    Director: Christopher Storer

    Género: Comedia

    Actores: Matty Matheson

  • Wolves (2022) AMZN WEB-DL 1080p Latino

    Wolves (2022) AMZN WEB-DL 1080p Latino

    2022
    Wolves (2022) AMZN WEB-DL 1080p Latino

    1h 43m 2022

    Un joven solitario se depara con una serie de crímenes sin resolver, que involucran animales mutilados...

    Director: Danny Dunlop

    Género: Crimen

    Actores: Rod Keith

descargar El color púrpura (2023) WEB-DL 1080p Latino WEBDL 1080p gratis, El color púrpura (2023) WEB-DL 1080p Latino WEBDL mega 1 link, El color púrpura (2023) WEB-DL 1080p Latino WEBDL pelicula completa, descargar El color púrpura (2023) WEB-DL 1080p Latino WEBDL gratis en mega.

El color púrpura (2023) WEB-DL 1080p Latino pelicula full hd, El color púrpura (2023) WEB-DL 1080p Latino mega latino, El color púrpura (2023) WEB-DL 1080p Latino 4k latino, El color púrpura (2023) WEB-DL 1080p Latino pelicula completa, El color púrpura (2023) WEB-DL 1080p Latino descargar gratis, descargar El color púrpura (2023) WEB-DL 1080p Latino pelicula latino, El color púrpura (2023) WEB-DL 1080p Latino 1 link mega, El color púrpura (2023) WEB-DL 1080p Latino 1 link google drive, El color púrpura (2023) WEB-DL 1080p Latino hd 1080p latino.
Comentarios 0