×

¿Problemas para descargar con Mozilla, EDGE? Deshabilita la opción "Abrir vinculos en una pestaña nueva" tal como lo muestra ésta imagen.

El color púrpura (2023) WEB-DL 4K UHD HDR Latino

139 vistas

Información de El color púrpura (2023) WEB-DL 4K UHD HDR Latino

Datos de la película

  • Calidad: WEBDL
  • Audio: Español Latino AC3 5.1 WEB-DL - Ingles AC3 5.1 WEB-DL
  • Subtitulos: Español Latino SRT- FORZADOS SRT
  • Resolución: 3840x2080p
  • Formato: MKV
  • Codec: HEVC
  • Encoder: Melkor
  • Mediainfo: Clic para Mostrar Datos Ver
  • The Color Purple (2023) WEB UHD HDR Latino.mkv
    Format                      : Matroska
    Format version              : Version 4
    File size                   : 15.7 GiB
    Duration                    : 2 h 20 min
    Overall bit rate            : 15.9 Mb/s
    Movie name                  : The Color Purple (2023) CinemaniaHDD.Net
    Encoded date                : UTC 2024-01-17 07:31:10
    Writing application         : mkvmerge v56.1.0 ('My Friend') 64-bit
    Writing library             : libebml v1.4.2 + libmatroska v1.6.4
    Attachments                 : CINEMANIAHD.png
    Site                        : CinemaniaHDD.Net
    Uploader                    : Melkor

    Video
    ID                          : 1
    Format                      : HEVC
    Format/Info                 : High Efficiency Video Coding
    Format profile              : Main 10@L5@Main
    HDR format                  : SMPTE ST 2094 App 4, Version 1, HDR10+ Profile B compatible
    Codec ID                    : V_MPEGH/ISO/HEVC
    Duration                    : 2 h 20 min
    Bit rate                    : 14.9 Mb/s
    Width                       : 3 840 pixels
    Height                      : 2 080 pixels
    Display aspect ratio        : 1.85:1
    Frame rate mode             : Constant
    Frame rate                  : 23.976 (24000/1001) FPS
    Color space                 : YUV
    Chroma subsampling          : 4:2:0
    Bit depth                   : 10 bits
    Bits/(Pixel*Frame)          : 0.078
    Stream size                 : 14.6 GiB (94%)
    Title                       : Web 2160p HDR [CinemaniaHDD]
    Default                     : Yes
    Forced                      : No
    Color range                 : Limited
    Color primaries             : BT.2020
    Transfer characteristics    : PQ
    Matrix coefficients         : BT.2020 non-constant
    Mastering display color pri : R: x=0.680000 y=0.320000, G: x=0.265000 y=0.690000, B: x=0.150000 y=0.060000, White point: x=0.313000 y=0.329000
    Mastering display luminance : min: 0.0050 cd/m2, max: 1000 cd/m2
    Maximum Content Light Level : 292 cd/m2
    Maximum Frame-Average Light : 84 cd/m2

    Audio #1
    ID                          : 2
    Format                      : AC-3
    Format/Info                 : Audio Coding 3
    Commercial name             : Dolby Digital
    Codec ID                    : A_AC3
    Duration                    : 2 h 20 min
    Bit rate mode               : Constant
    Bit rate                    : 384 kb/s
    Channel(s)                  : 6 channels
    Channel layout              : L R C LFE Ls Rs
    Sampling rate               : 48.0 kHz
    Frame rate                  : 31.250 FPS (1536 SPF)
    Compression mode            : Lossy
    Delay relative to video     : 11 ms
    Stream size                 : 387 MiB (2%)
    Title                       : Español Latino [CinemaniaHDD]
    Language                    : Spanish
    Service kind                : Complete Main
    Default                     : Yes
    Forced                      : Yes

    Audio #2
    ID                          : 3
    Format                      : E-AC-3
    Format/Info                 : Enhanced AC-3
    Commercial name             : Dolby Digital Plus
    Codec ID                    : A_EAC3
    Duration                    : 2 h 20 min
    Bit rate mode               : Constant
    Bit rate                    : 640 kb/s
    Channel(s)                  : 6 channels
    Channel layout              : L R C LFE Ls Rs
    Sampling rate               : 48.0 kHz
    Frame rate                  : 31.250 FPS (1536 SPF)
    Compression mode            : Lossy
    Stream size                 : 645 MiB (4%)
    Title                       : Ingles [CinemaniaHDD]
    Language                    : English
    Service kind                : Complete Main
    Default                     : No
    Forced                      : No

    Text #1
    ID                          : 4
    Format                      : UTF-8
    Codec ID                    : S_TEXT/UTF8
    Codec ID/Info               : UTF-8 Plain Text
    Duration                    : 2 h 19 min
    Bit rate                    : 17 b/s
    Count of elements           : 512
    Stream size                 : 17.4 KiB (0%)
    Title                       : Forzados-SRT [CinemaniaHDD]
    Language                    : Spanish
    Default                     : Yes
    Forced                      : Yes

    Text #2
    ID                          : 5
    Format                      : UTF-8
    Codec ID                    : S_TEXT/UTF8
    Codec ID/Info               : UTF-8 Plain Text
    Duration                    : 2 h 19 min
    Bit rate                    : 48 b/s
    Count of elements           : 1659
    Stream size                 : 50.0 KiB (0%)
    Title                       : Español-SRT [CinemaniaHDD]
    Language                    : Spanish
    Default                     : No
    Forced                      : No

    Text #3
    ID                          : 6
    Format                      : UTF-8
    Codec ID                    : S_TEXT/UTF8
    Codec ID/Info               : UTF-8 Plain Text
    Duration                    : 2 h 15 min
    Bit rate                    : 68 b/s
    Count of elements           : 2044
    Stream size                 : 67.9 KiB (0%)
    Title                       : Ingles-SRT [CinemaniaHDD]
    Language                    : English
    Default                     : No
    Forced                      : No

    Menu
    00:00:00.000                : Chapter 01
    00:09:35.158                : Chapter 02
    00:20:33.149                : Chapter 03
    00:28:41.721                : Chapter 04
    00:39:07.722                : Chapter 05
    00:49:05.236                : Chapter 06
    00:58:33.763                : Chapter 07
    01:09:47.354                : Chapter 08
    01:18:26.915                : Chapter 09
    01:29:26.783                : Chapter 10
    01:38:46.426                : Chapter 11
    01:49:53.635                : Chapter 12
    02:02:12.916                : Chapter 13
    02:12:08.595                : Chapter 14

  • Peso: 15.7 GiB

Sinopsis

Descargar El color púrpura (2023) WEB-DL 4K UHD HDR Latino. Adaptación musical de la novela de Alice Walker sobre las luchas de toda la vida de una mujer afroamericana que vive en el sur a principios del siglo XX.

Ficha técnica

Video trailer de la película

Enlaces de descarga

Rip de Bluray

Descargar El color púrpura (2023) WEB-DL 4K UHD HDR Latino




Aportes de DPeliculasHDmega la pass es:dpeliculashdmega.org Aportes de CinemaniaHD la pass es:cinemaniahdd.com Aportes recientes:cinemaniahdd.net
Guardado en : 4K HDR , 4K UHD , Drama

Películas relacionadas

descargar El color púrpura (2023) WEB-DL 4K UHD HDR Latino WEBDL 1080p gratis, El color púrpura (2023) WEB-DL 4K UHD HDR Latino WEBDL mega 1 link, El color púrpura (2023) WEB-DL 4K UHD HDR Latino WEBDL pelicula completa, descargar El color púrpura (2023) WEB-DL 4K UHD HDR Latino WEBDL gratis en mega.

El color púrpura (2023) WEB-DL 4K UHD HDR Latino pelicula full hd, El color púrpura (2023) WEB-DL 4K UHD HDR Latino mega latino, El color púrpura (2023) WEB-DL 4K UHD HDR Latino 4k latino, El color púrpura (2023) WEB-DL 4K UHD HDR Latino pelicula completa, El color púrpura (2023) WEB-DL 4K UHD HDR Latino descargar gratis, descargar El color púrpura (2023) WEB-DL 4K UHD HDR Latino pelicula latino, El color púrpura (2023) WEB-DL 4K UHD HDR Latino 1 link mega, El color púrpura (2023) WEB-DL 4K UHD HDR Latino 1 link google drive, El color púrpura (2023) WEB-DL 4K UHD HDR Latino hd 1080p latino.
Comentarios 0