El color púrpura (1985) Full 1080p Latino

1.038 vistas
1 estrella2 estrellas3 estrellas4 estrellas5 estrellas (1 votos, promedio: 5,00 de 5)
Cargando…

Información de El color púrpura (1985) Full 1080p Latino

Datos de la película

  • Calidad: Full 1080p
  • Audio: Español Latino AC3 1.0 BLURAY - Ingles DTS 5.1 BLURAY
  • Subtitulos: Español Latino PGS - Ingles PGS
  • Resolución: 1920x1080p
  • Formato: MKV
  • Codec: H.264
  • Encoder: Dracarys
  • Mediainfo: Clic para Mostrar Datos Ver
  • Format                                   : Matroska
    Format version                           : Version 4 / Version 2
    File size                                : 20.6 GiB
    Duration                                 : 2 h 33 min
    Overall bit rate                         : 19.2 Mb/s
    Movie name                               : CinemnaiaHDD.net
    Encoded date                             : UTC 2018-08-09 02:31:50 / UTC 2018-08-03T14:08:44Z
    Writing application                      : mkvmerge v15.0.0 ('Duel with the Devil') 64-bit
    Writing library                          : libebml v1.3.5 + libmatroska v1.4.5 / Lavf57.7.2

    Video
    ID                                       : 1
    Format                                   : AVC
    Format/Info                              : Advanced Video Codec
    Format profile                           : High@L4.1
    Format settings                          : CABAC / 4 Ref Frames
    Format settings, CABAC                   : Yes
    Format settings, RefFrames               : 4 frames
    Codec ID                                 : V_MPEG4/ISO/AVC
    Duration                                 : 2 h 33 min
    Bit rate                                 : 17.1 Mb/s
    Width                                    : 1 920 pixels
    Height                                   : 1 080 pixels
    Display aspect ratio                     : 16:9
    Frame rate mode                          : Constant
    Frame rate                               : 23.976 (24000/1001) FPS
    Color space                              : YUV
    Chroma subsampling                       : 4:2:0
    Bit depth                                : 8 bits
    Scan type                                : Progressive
    Bits/(Pixel*Frame)                       : 0.344
    Stream size                              : 18.4 GiB (89%)
    Title                                    : El color púrpura (1985) Full 1080p Latino
    Writing library                          : x264 core 148 r2708 86b7198
    Encoding settings                        : cabac=1 / ref=4 / deblock=1:0:0 / analyse=0x3:0x133 / me=esa / subme=10 / psy=1 / psy_rd=1.00:0.00 / mixed_ref=1 / me_range=24 / chroma_me=1 / trellis=2 / 8x8dct=1 / cqm=0 / deadzone=21,11 / fast_pskip=1 / chroma_qp_offset=-2 / threads=34 / lookahead_threads=5 / sliced_threads=0 / nr=0 / decimate=1 / interlaced=0 / bluray_compat=0 / constrained_intra=0 / bframes=8 / b_pyramid=2 / b_adapt=2 / b_bias=0 / direct=3 / weightb=1 / open_gop=0 / weightp=2 / keyint=240 / keyint_min=24 / scenecut=40 / intra_refresh=0 / rc_lookahead=60 / rc=crf / mbtree=1 / crf=19.0 / qcomp=0.60 / qpmin=0 / qpmax=69 / qpstep=4 / vbv_maxrate=62500 / vbv_bufsize=78125 / crf_max=0.0 / nal_hrd=none / filler=0 / ip_ratio=1.40 / aq=1:1.00
    Language                                 : English
    Default                                  : Yes
    Forced                                   : No
    Color range                              : Limited
    Color primaries                          : BT.709
    Transfer characteristics                 : BT.709
    Matrix coefficients                      : BT.709
    Statistics Tags Issue                    : mkvmerge v15.0.0 ('Duel with the Devil') 64-bit 2018-08-09 02:31:50 / mkvmerge v15.0.0 ('Duel with the Devil') 64-bit 2018-08-09 02:31:50 / UTC 2018-08-03T14:08:44Z
    FromStats_BitRate                        : 17475387
    FromStats_Duration                       : 02:33:46.426000000
    FromStats_FrameCount                     : 221213
    FromStats_StreamSize                     : 20154421393

    Audio #1
    ID                                       : 2
    Format                                   : AC-3
    Format/Info                              : Audio Coding 3
    Format settings, Endianness              : Big
    Codec ID                                 : A_AC3
    Duration                                 : 2 h 33 min
    Bit rate mode                            : Constant
    Bit rate                                 : 192 kb/s
    Channel(s)                               : 1 channel
    Channel positions                        : Front: C
    Sampling rate                            : 48.0 kHz
    Frame rate                               : 31.250 FPS (1536 SPF)
    Bit depth                                : 16 bits
    Compression mode                         : Lossy
    Stream size                              : 211 MiB (1%)
    Language                                 : Spanish
    Service kind                             : Complete Main
    Default                                  : Yes
    Forced                                   : No
    Statistics Tags Issue                    : mkvmerge v15.0.0 ('Duel with the Devil') 64-bit 2018-08-09 02:31:50 / mkvmerge v15.0.0 ('Duel with the Devil') 64-bit 2018-08-09 02:31:50 / UTC 2018-08-03T14:08:44Z
    FromStats_BitRate                        : 192000
    FromStats_Duration                       : 02:33:46.496000000
    FromStats_FrameCount                     : 288328
    FromStats_StreamSize                     : 221435904

    Audio #2
    ID                                       : 3
    Format                                   : DTS
    Format/Info                              : Digital Theater Systems
    Mode                                     : 16
    Format settings, Endianness              : Big
    Codec ID                                 : A_DTS
    Duration                                 : 2 h 33 min
    Bit rate mode                            : Constant
    Bit rate                                 : 1 509 kb/s
    Channel(s)                               : 6 channels
    Channel positions                        : Front: L C R, Side: L R, LFE
    Sampling rate                            : 48.0 kHz
    Frame rate                               : 93.750 FPS (512 SPF)
    Bit depth                                : 24 bits
    Compression mode                         : Lossy
    Stream size                              : 1.62 GiB (8%)
    Language                                 : English
    Default                                  : No
    Forced                                   : No
    Statistics Tags Issue                    : mkvmerge v15.0.0 ('Duel with the Devil') 64-bit 2018-08-09 02:31:50 / mkvmerge v15.0.0 ('Duel with the Devil') 64-bit 2018-08-09 02:31:50 / UTC 2018-08-03T14:08:44Z
    FromStats_BitRate                        : 1509000
    FromStats_Duration                       : 02:33:46.464000000
    FromStats_FrameCount                     : 864981
    FromStats_StreamSize                     : 1740341772

    Text #1
    ID                                       : 4
    Format                                   : PGS
    Muxing mode                              : zlib
    Codec ID                                 : S_HDMV/PGS
    Codec ID/Info                            : Picture based subtitle format used on BDs/HD-DVDs
    Language                                 : English
    Default                                  : No
    Forced                                   : No
    Statistics Tags Issue                    : mkvmerge v15.0.0 ('Duel with the Devil') 64-bit 2018-08-09 02:31:50 / mkvmerge v15.0.0 ('Duel with the Devil') 64-bit 2018-08-09 02:31:50 / UTC 2018-08-03T14:08:44Z
    FromStats_BitRate                        : 27020
    FromStats_Duration                       : 02:32:46.574000000
    FromStats_FrameCount                     : 3125
    FromStats_StreamSize                     : 30960912

    Text #2
    ID                                       : 5
    Format                                   : PGS
    Muxing mode                              : zlib
    Codec ID                                 : S_HDMV/PGS
    Codec ID/Info                            : Picture based subtitle format used on BDs/HD-DVDs
    Language                                 : Spanish
    Default                                  : No
    Forced                                   : No
    Statistics Tags Issue                    : mkvmerge v15.0.0 ('Duel with the Devil') 64-bit 2018-08-09 02:31:50 / mkvmerge v15.0.0 ('Duel with the Devil') 64-bit 2018-08-09 02:31:50 / UTC 2018-08-03T14:08:44Z
    FromStats_BitRate                        : 18038
    FromStats_Duration                       : 02:33:16.229000000
    FromStats_FrameCount                     : 2271
    FromStats_StreamSize                     : 20735814

    Menu
    00:00:00.000                             : :Chapter 1
    00:03:22.077                             : :Chapter 2
    00:04:59.633                             : :Chapter 3
    00:07:44.172                             : :Chapter 4
    00:13:15.670                             : :Chapter 5
    00:16:30.072                             : :Chapter 6
    00:20:24.640                             : :Chapter 7
    00:23:10.222                             : :Chapter 8
    00:28:30.542                             : :Chapter 9
    00:32:31.408                             : :Chapter 10
    00:36:54.129                             : :Chapter 11
    00:41:00.124                             : :Chapter 12
    00:47:21.672                             : :Chapter 13
    00:50:41.205                             : :Chapter 14
    00:54:44.656                             : :Chapter 15
    00:57:14.514                             : :Chapter 16
    01:01:09.749                             : :Chapter 17
    01:05:15.120                             : :Chapter 18
    01:08:06.082                             : :Chapter 19
    01:12:17.500                             : :Chapter 20
    01:18:50.309                             : :Chapter 21
    01:21:11.158                             : :Chapter 22
    01:23:51.944                             : :Chapter 23
    01:26:47.744                             : :Chapter 24
    01:30:26.296                             : :Chapter 25
    01:36:13.935                             : :Chapter 26
    01:39:24.625                             : :Chapter 27
    01:45:22.441                             : :Chapter 28
    01:48:34.508                             : :Chapter 29
    01:54:16.141                             : :Chapter 30
    01:58:12.919                             : :Chapter 31
    02:03:26.941                             : :Chapter 32
    02:06:50.436                             : :Chapter 33
    02:08:42.173                             : :Chapter 34
    02:13:10.691                             : :Chapter 35
    02:15:37.880                             : :Chapter 36
    02:17:58.771                             : :Chapter 37
    02:22:57.110                             : :Chapter 38
    02:28:50.380                             : :Chapter 39

  • Peso: 20.6 GiB

Sinopsis

Principios del siglo XX. Narra la historia de Celie, una adolescente negra de catorce años que está embarazada de su propio padre, un hombre despótico y cruel. A partir de entonces su vida estará llena de dolor y humillaciones.

Ficha técnica

Video trailer de la película

Enlaces de descarga

Rip de Bluray

Descargar El color púrpura (1985) Full 1080p Latino




Aportes de DPeliculasHDmega la pass es:dpeliculashdmega.org Aportes de CinemaniaHD la pass es:cinemaniahdd.com
Guardado en : Drama , FULL 1080p Plateadas

Películas relacionadas

  • Unbroken Path to Redemption (2018) 1080p Latino

    2018
    Unbroken Path to Redemption (2018) 1080p Latino

    0.0 1h 38m 2018

    Zamperini regresa a California donde se casó a regañadientes con Cynthia Applewhite mientras luchaba...

    Director: Harold Cronk

    Género: Drama

    Actores: Will Graham

  • Matar o morir (2018) 1080p Subtitulado

    2018
    Matar o morir (2018) 1080p Subtitulado

    5.0 1h 41m 2018

    Descargar Matar o morir [Peppermint] (2018) 1080p Subtitulado, Mega, Google Drive. LRiley North (Jennifer...

    Director: Pierre Morel

    Género: Acción

    Actores: YaYa Gosselin

  • Ni en tus sueños (2010) Full 1080p Latino

    2010
    Ni en tus sueños (2010) Full 1080p Latino

    0.0 1h 44m 2010

    Descargar Ni en tus sueños (2010) Full 1080p Latino, Mega, Google Drive. Kirk (Jay Baruchel, "Tropic...

    Director: Richard L. Fox

    Género: Comedia

    Actores: Yan Xi

  • La Chica de La Capa Roja (2011) Full 1080p Latino

    2011
    La Chica de La Capa Roja (2011) Full 1080p Latino

    4.7 1h 40m 2011

    Descargar La Chica de La Capa Roja (2011) Full 1080p Latino, Mega, Google Drive. La joven Valerie se...

    Director: Kimi Webber

    Género: Fantasía

    Actores: Virginia Madsen

  • Soy el número cuatro (2011) Full 1080p Latino

    2011
    Soy el número cuatro (2011) Full 1080p Latino

    0.0 1h 42m 2011

    Descargar Soy el número cuatro (2011) Full 1080p Latino, Mega, Google Drive. Aunque tenga la apariencia...

    Director: D.J. Caruso

    Género: Acción

    Actores: Zoe Simek

Comentarios 0