×

¿Problemas para descargar con Mozilla, EDGE? Deshabilita la opción "Abrir vinculos en una pestaña nueva" tal como lo muestra ésta imagen.

Piratas del Caribe: El Cofre de la Muerte (2006) Web-DL 4K UHD HDR Latino

1.239 vistas

Información de Piratas del Caribe: El Cofre de la Muerte (2006) Web-DL 4K UHD HDR Latino

Datos de la película

  • Calidad: 4K HDR
  • Audio: Se especifica abajo de la Sinopsis
  • Subtitulos: Español Latino SRT - Ingles SRT
  • Resolución: 3840x2160p
  • Formato: MKV
  • Codec: HEVC
  • Encoder: CinefiloCool
  • Mediainfo: Clic para Mostrar Datos Ver
  • P.o.t.C. - El Cofre de la Muerte (2006) Web-DL UHD HDR Latino-CMHDD.mkv
    Format                      : Matroska
    Format version              : Version 4
    File size                   : 18.4 GiB
    Duration                    : 2 h 32 min
    Overall bit rate            : 17.3 Mb/s
    Movie name                  : CinemaniaHDD.Net
    Encoded date                : UTC 2020-03-11 22:44:20
    Writing application         : mkvmerge v42.0.0 ('Overtime') 64-bit
    Writing library             : libebml v1.3.10 + libmatroska v1.5.2
    Attachments                 : CINEMANIAHD.png

    Video
    ID                          : 1
    Format                      : HEVC
    Format/Info                 : High Efficiency Video Coding
    Format profile              : Main 10@L5@High
    Codec ID                    : V_MPEGH/ISO/HEVC
    Duration                    : 2 h 32 min
    Bit rate                    : 16.4 Mb/s
    Width                       : 3 840 pixels
    Height                      : 2 160 pixels
    Display aspect ratio        : 16:9
    Frame rate mode             : Constant
    Frame rate                  : 23.976 (24000/1001) FPS
    Color space                 : YUV
    Chroma subsampling          : 4:2:0
    Bit depth                   : 10 bits
    Bits/(Pixel*Frame)          : 0.083
    Stream size                 : 17.5 GiB (95%)
    Title                       : 2160p HDR [Web]
    Default                     : Yes
    Forced                      : Yes
    Color range                 : Limited
    Color primaries             : BT.2020
    Transfer characteristics    : PQ
    Matrix coefficients         : BT.2020 non-constant

    Audio #1
    ID                          : 2
    Format                      : AC-3
    Format/Info                 : Audio Coding 3
    Commercial name             : Dolby Digital
    Codec ID                    : A_AC3
    Duration                    : 2 h 30 min
    Bit rate mode               : Constant
    Bit rate                    : 640 kb/s
    Channel(s)                  : 6 channels
    Channel layout              : L R C LFE Ls Rs
    Sampling rate               : 48.0 kHz
    Frame rate                  : 31.250 FPS (1536 SPF)
    Bit depth                   : 16 bits
    Compression mode            : Lossy
    Delay relative to video     : 10 ms
    Stream size                 : 690 MiB (4%)
    Title                       : AC3_5.1_Bluray_Esp
    Language                    : Spanish
    Service kind                : Complete Main
    Default                     : Yes
    Forced                      : Yes

    Audio #2
    ID                          : 3
    Format                      : E-AC-3
    Format/Info                 : Enhanced AC-3
    Commercial name             : Dolby Digital Plus
    Codec ID                    : A_EAC3
    Duration                    : 2 h 32 min
    Bit rate mode               : Constant
    Bit rate                    : 256 kb/s
    Channel(s)                  : 6 channels
    Channel layout              : L R C LFE Ls Rs
    Sampling rate               : 48.0 kHz
    Frame rate                  : 31.250 FPS (1536 SPF)
    Compression mode            : Lossy
    Stream size                 : 279 MiB (1%)
    Title                       : DDP_5.1_Web_Eng
    Language                    : English
    Service kind                : Complete Main
    Default                     : No
    Forced                      : No

    Text #1
    ID                          : 4
    Format                      : UTF-8
    Codec ID                    : S_TEXT/UTF8
    Codec ID/Info               : UTF-8 Plain Text
    Duration                    : 34 min 10 s
    Bit rate                    : 0 b/s
    Count of elements           : 3
    Stream size                 : 48.0 Bytes (0%)
    Title                       : Sub_Forzados
    Language                    : Spanish
    Default                     : Yes
    Forced                      : Yes

    Text #2
    ID                          : 5
    Format                      : UTF-8
    Codec ID                    : S_TEXT/UTF8
    Codec ID/Info               : UTF-8 Plain Text
    Duration                    : 2 h 20 min
    Bit rate                    : 38 b/s
    Count of elements           : 1139
    Stream size                 : 40.0 KiB (0%)
    Title                       : Sub_Esp
    Language                    : Spanish
    Default                     : No
    Forced                      : No

    Text #3
    ID                          : 6
    Format                      : UTF-8
    Codec ID                    : S_TEXT/UTF8
    Codec ID/Info               : UTF-8 Plain Text
    Duration                    : 2 h 29 min
    Bit rate                    : 41 b/s
    Count of elements           : 1485
    Stream size                 : 45.5 KiB (0%)
    Title                       : Sub_Eng
    Language                    : English
    Default                     : No
    Forced                      : No

    Menu
    00:00:00.000                : en:Introduction
    00:04:17.975                : en:"and a Bottle of Rum"
    00:09:52.059                : en:"Left Our Marks"
    00:12:12.491                : en:"Time Is Running Out"
    00:19:08.114                : en:"I Have Faith in You"
    00:23:52.523                : en:"Save Me"
    00:30:14.530                : en:Salvaging the Ship
    00:35:28.468                : en:"About Six Will Do"
    00:40:31.980                : en:"This Way, Lads"
    00:46:27.085                : en:The Ship Is Haunted
    00:50:24.614                : en:Touch of Destiny
    00:56:17.675                : en:The Flying Dutchman
    00:59:51.430                : en:Davy Jones
    01:05:44.241                : en:Tortuga
    01:11:54.903                : en:Mr. Turner
    01:17:03.377                : en:"Hide the Rum"
    01:22:09.308                : en:Game of Deception
    01:30:35.689                : en:Persuade Me
    01:34:37.222                : en:The Kraken
    01:39:20.880                : en:"Very Much Alike"
    01:44:51.460                : en:"Can't Let You Do That"
    01:49:13.764                : en:Fight for the Key
    01:54:54.855                : en:Beating Heart
    01:59:35.093                : en:"I Got a Jar of Dirt"
    02:04:58.958                : en:Load the Rum
    02:10:26.244                : en:Abandon Ship
    02:16:19.680                : en:"Something to Trade"
    02:21:03.839                : en:Credits
    02:30:38.080                : en:02:30:39.030

  • Peso: 18.4 GiB

Sinopsis

Descargar Piratas del Caribe: El Cofre de la Muerte (2006) Web-DL 4K UHD HDR Latino. Will Turner y Elizabeth Swann se van a casar, pero ambos son hechos prisioneros por Lord Cutler Beckett y acusados de haber liberado al Capitán Jack Sparrow. Para salvar su vida Will tendrá que encontrar a Jack y conseguir su misteriosa brújula, que esconde un gran poder además de la clave de una deuda de sangre del pirata con un temible y siniestro Davy Jones, el legendario Capitán del barco fantasma Holandés Errante.

Audio Español Latino AC3 5.1 Bluray – Ingles EAC3 5.1 Web-DL

Ficha técnica

Video trailer de la película

Enlaces de descarga

Rip de Bluray

Descargar Piratas del Caribe: El Cofre de la Muerte (2006) Web-DL 4K UHD HDR Latino




Aportes de DPeliculasHDmega la pass es:dpeliculashdmega.org Aportes de CinemaniaHD la pass es:cinemaniahdd.com
Guardado en : 4K HDR , 4K UHD , Acción , Aventura , Fantasía

Películas relacionadas

  • Mi amigo el dragón (2016) Full HD 1080p Latino

    Mi amigo el dragón (2016) Full HD 1080p Latino

    2016
    Mi amigo el dragón (2016) Full HD 1080p Latino

    1h 43m 2016

    Descargar Mi amigo el dragón (2016) Full HD 1080p Latino. Durante años el Sr. Meacham, un viejo tallador...

    Director: Joe Nolan

    Género: Aventura

    Actores: William J. Rawbone

  • Mi amigo el dragón (2016) REMUX 1080p Latino

    Mi amigo el dragón (2016) REMUX 1080p Latino

    2016
    Mi amigo el dragón (2016) REMUX 1080p Latino

    1h 43m 2016

    Descargar Mi amigo el dragón (2016) REMUX 1080p Latino. Durante años el Sr. Meacham, un viejo tallador...

    Director: Joe Nolan

    Género: Aventura

    Actores: William J. Rawbone

  • Lucy (2014) REMUX 4K HDR Latino – CMHDD

    Lucy (2014) REMUX 4K HDR Latino – CMHDD

    2014
    Lucy (2014) REMUX 4K HDR Latino – CMHDD

    1h 30m 2014

    Lucy, una joven obligada a ejercer de mula de una nueva y potente droga, adquiere de repente enormes...

    Director: Luc Besson

    Género: Acción

    Actores: Wolfgang Pissors

descargar Piratas del Caribe: El Cofre de la Muerte (2006) Web-DL 4K UHD HDR Latino 4K HDR 1080p gratis, Piratas del Caribe: El Cofre de la Muerte (2006) Web-DL 4K UHD HDR Latino 4K HDR mega 1 link, Piratas del Caribe: El Cofre de la Muerte (2006) Web-DL 4K UHD HDR Latino 4K HDR pelicula completa, descargar Piratas del Caribe: El Cofre de la Muerte (2006) Web-DL 4K UHD HDR Latino 4K HDR gratis en mega.

Piratas del Caribe: El Cofre de la Muerte (2006) Web-DL 4K UHD HDR Latino pelicula full hd, Piratas del Caribe: El Cofre de la Muerte (2006) Web-DL 4K UHD HDR Latino mega latino, Piratas del Caribe: El Cofre de la Muerte (2006) Web-DL 4K UHD HDR Latino 4k latino, Piratas del Caribe: El Cofre de la Muerte (2006) Web-DL 4K UHD HDR Latino pelicula completa, Piratas del Caribe: El Cofre de la Muerte (2006) Web-DL 4K UHD HDR Latino descargar gratis, descargar Piratas del Caribe: El Cofre de la Muerte (2006) Web-DL 4K UHD HDR Latino pelicula latino, Piratas del Caribe: El Cofre de la Muerte (2006) Web-DL 4K UHD HDR Latino 1 link mega, Piratas del Caribe: El Cofre de la Muerte (2006) Web-DL 4K UHD HDR Latino 1 link google drive, Piratas del Caribe: El Cofre de la Muerte (2006) Web-DL 4K UHD HDR Latino hd 1080p latino.
Comentarios 0