×

¿Problemas para descargar con Mozilla, EDGE? Deshabilita la opción "Abrir vinculos en una pestaña nueva" tal como lo muestra ésta imagen.

El club de los vándalos (2023) AMZN WEB-DL 1080p Latino

7 vistas

Información de El club de los vándalos (2023) AMZN WEB-DL 1080p Latino

Datos de la película

  • Calidad: WEBDL
  • Audio: Español Latino AC3 5.1 WEB-DL - Ingles AC3 5.1 WEB-DL
  • Subtitulos: Español Latino SRT- FORZADOS SRT
  • Resolución: 1920x800p
  • Formato: MKV
  • Codec: H.264
  • Encoder: Melkor
  • Mediainfo: Clic para Mostrar Datos Ver
  • The Bikeriders (2023) AMZN WEB 1080p Latino.mkv
    Format                      : Matroska
    Format version              : Version 4
    File size                   : 7.70 GiB
    Duration                    : 1 h 56 min
    Overall bit rate            : 9 468 kb/s
    Movie name                  : The Bikeriders (2023) CinemaniaHDD.Net
    Encoded date                : UTC 2024-07-10 06:57:09
    Writing application         : mkvmerge v56.1.0 ('My Friend') 64-bit
    Writing library             : libebml v1.4.2 + libmatroska v1.6.4
    Attachments                 : CINEMANIAHD.png
    Site                        : CinemaniaHDD.Net
    Uploader                    : Melkor

    Video
    ID                          : 1
    Format                      : AVC
    Format/Info                 : Advanced Video Codec
    Format profile              : High@L4
    Format settings             : CABAC / 4 Ref Frames
    Format settings, CABAC      : Yes
    Format settings, Reference  : 4 frames
    Codec ID                    : V_MPEG4/ISO/AVC
    Duration                    : 1 h 56 min
    Bit rate mode               : Constant
    Bit rate                    : 8 315 kb/s
    Nominal bit rate            : 10 000 kb/s
    Width                       : 1 920 pixels
    Height                      : 800 pixels
    Display aspect ratio        : 2.40:1
    Frame rate mode             : Constant
    Frame rate                  : 23.976 (24000/1001) FPS
    Color space                 : YUV
    Chroma subsampling          : 4:2:0
    Bit depth                   : 8 bits
    Scan type                   : Progressive
    Bits/(Pixel*Frame)          : 0.226
    Stream size                 : 6.76 GiB (88%)
    Title                       : Web HD1080p [CinemaniaHDD]
    Default                     : Yes
    Forced                      : Yes
    Color range                 : Limited
    Color primaries             : BT.709
    Transfer characteristics    : BT.709
    Matrix coefficients         : BT.709

    Audio #1
    ID                          : 2
    Format                      : AC-3
    Format/Info                 : Audio Coding 3
    Commercial name             : Dolby Digital
    Codec ID                    : A_AC3
    Duration                    : 1 h 56 min
    Bit rate mode               : Constant
    Bit rate                    : 384 kb/s
    Channel(s)                  : 6 channels
    Channel layout              : L R C LFE Ls Rs
    Sampling rate               : 48.0 kHz
    Frame rate                  : 31.250 FPS (1536 SPF)
    Compression mode            : Lossy
    Stream size                 : 320 MiB (4%)
    Title                       : Español Latino [CinemaniaHDD]
    Language                    : Spanish
    Service kind                : Complete Main
    Default                     : Yes
    Forced                      : Yes

    Audio #2
    ID                          : 3
    Format                      : E-AC-3 JOC
    Format/Info                 : Enhanced AC-3 with Joint Object Coding
    Commercial name             : Dolby Digital Plus with Dolby Atmos
    Codec ID                    : A_EAC3
    Duration                    : 1 h 56 min
    Bit rate mode               : Constant
    Bit rate                    : 768 kb/s
    Channel(s)                  : 6 channels
    Channel layout              : L R C LFE Ls Rs
    Sampling rate               : 48.0 kHz
    Frame rate                  : 31.250 FPS (1536 SPF)
    Compression mode            : Lossy
    Delay relative to video     : 16 ms
    Stream size                 : 639 MiB (8%)
    Title                       : Ingles [CinemaniaHDD]
    Language                    : English
    Service kind                : Complete Main
    Default                     : No
    Forced                      : No
    Complexity index            : 16
    Number of dynamic objects   : 15
    Bed channel count           : 1 channel
    Bed channel configuration   : LFE

    Text #1
    ID                          : 4
    Format                      : UTF-8
    Codec ID                    : S_TEXT/UTF8
    Codec ID/Info               : UTF-8 Plain Text
    Duration                    : 1 h 47 min
    Bit rate                    : 0 b/s
    Count of elements           : 14
    Stream size                 : 400 Bytes (0%)
    Title                       : Forzados-SRT [CinemaniaHDD]
    Language                    : Spanish
    Default                     : Yes
    Forced                      : Yes

    Text #2
    ID                          : 5
    Format                      : UTF-8
    Codec ID                    : S_TEXT/UTF8
    Codec ID/Info               : UTF-8 Plain Text
    Duration                    : 1 h 49 min
    Bit rate                    : 50 b/s
    Count of elements           : 1503
    Stream size                 : 40.5 KiB (0%)
    Title                       : Español-SRT [CinemaniaHDD]
    Language                    : Spanish
    Default                     : No
    Forced                      : No

    Text #3
    ID                          : 6
    Format                      : UTF-8
    Codec ID                    : S_TEXT/UTF8
    Codec ID/Info               : UTF-8 Plain Text
    Duration                    : 1 h 54 min
    Bit rate                    : 66 b/s
    Count of elements           : 1894
    Stream size                 : 56.3 KiB (0%)
    Title                       : Ingles-SRT [CinemaniaHDD]
    Language                    : English
    Default                     : No
    Forced                      : No

    Menu
    00:00:00.016                : Chapter 01
    00:10:36.736                : Chapter 02
    00:17:59.595                : Chapter 03
    00:25:19.660                : Chapter 04
    00:32:05.107                : Chapter 05
    00:39:58.414                : Chapter 06
    00:47:41.252                : Chapter 07
    00:54:21.402                : Chapter 08
    00:58:56.218                : Chapter 09
    01:06:24.542                : Chapter 10
    01:16:29.480                : Chapter 11
    01:23:41.620                : Chapter 12
    01:28:52.598                : Chapter 13
    01:35:55.646                : Chapter 14
    01:42:44.805                : Chapter 15
    01:48:55.176                : Chapter 16

  • Peso: 7.70 GiB

Sinopsis

Descargar El club de los vándalos (2023) AMZN WEB-DL 1080p Latino. Tras un encuentro casual en un bar, Kathy, una mujer con carácter, se siente profundamente atraída por Benny, el miembro más reciente de “The Vandals” (Los vándalos), un club de moteros del Medio Oeste liderado por el enigmático Johnny. Al igual que el país, el club empieza a cambiar, y pasa de ser un lugar de reunión para los forasteros locales a convertirse en un punto de encuentro para un violento submundo, obligando a Benny a escoger entre Kathy y la lealtad que siente por sus compañeros.

Ficha técnica

Video trailer de la película

Enlaces de descarga

Rip de Bluray

Descargar El club de los vándalos (2023) AMZN WEB-DL 1080p Latino




Aportes de DPeliculasHDmega la pass es:dpeliculashdmega.org Aportes de CinemaniaHD la pass es:cinemaniahdd.com Aportes recientes:cinemaniahdd.net
Guardado en : Crimen , Drama

Películas relacionadas

  • Un Heroe Anonimo (2024) 1080p Latino-CMHDD

    Un Heroe Anonimo (2024) 1080p Latino-CMHDD

    2024
    Un Heroe Anonimo (2024) 1080p Latino-CMHDD

    1h 53m 2024

    Descargar Un Heroe Anonimo (2024) 1080p Latino-CMHDD. Basada en una extraordinaria historia real, la...

    Director: Richard Ramsey

    Género: Drama

    Actores: Vin Morreale Jr

  • Un Heroe Anonimo (2024) Full HD 1080p Latino-CMHDD

    Un Heroe Anonimo (2024) Full HD 1080p Latino-CMHDD

    2024
    Un Heroe Anonimo (2024) Full HD 1080p Latino-CMHDD

    1h 53m 2024

    Descargar Un Heroe Anonimo (2024) Full HD 1080p Latino-CMHDD Basada en una extraordinaria historia real,...

    Director: Richard Ramsey

    Género: Drama

    Actores: Vin Morreale Jr

  • Un Heroe Anonimo (2024) REMUX 1080p Latino-CMHDD

    Un Heroe Anonimo (2024) REMUX 1080p Latino-CMHDD

    2024
    Un Heroe Anonimo (2024) REMUX 1080p Latino-CMHDD

    1h 53m 2024

    Descargar Un Heroe Anonimo (2024) REMUX 1080p Latino-CMHDD. Basada en una extraordinaria historia real,...

    Director: Richard Ramsey

    Género: Drama

    Actores: Vin Morreale Jr

  • Cómplices del engaño (2024) HD 1080p Latino

    Cómplices del engaño (2024) HD 1080p Latino

    2024
    Cómplices del engaño (2024) HD 1080p Latino

    1h 56m 2024

    Descargar Cómplices del engaño (2024) HD 1080p Latino. Gary Johnson es el asesino profesional más...

    Director: T.J. Larson

    Género: Comedia

    Actores: Tre Styles

descargar El club de los vándalos (2023) AMZN WEB-DL 1080p Latino WEBDL 1080p gratis, El club de los vándalos (2023) AMZN WEB-DL 1080p Latino WEBDL mega 1 link, El club de los vándalos (2023) AMZN WEB-DL 1080p Latino WEBDL pelicula completa, descargar El club de los vándalos (2023) AMZN WEB-DL 1080p Latino WEBDL gratis en mega.

El club de los vándalos (2023) AMZN WEB-DL 1080p Latino pelicula full hd, El club de los vándalos (2023) AMZN WEB-DL 1080p Latino mega latino, El club de los vándalos (2023) AMZN WEB-DL 1080p Latino 4k latino, El club de los vándalos (2023) AMZN WEB-DL 1080p Latino pelicula completa, El club de los vándalos (2023) AMZN WEB-DL 1080p Latino descargar gratis, descargar El club de los vándalos (2023) AMZN WEB-DL 1080p Latino pelicula latino, El club de los vándalos (2023) AMZN WEB-DL 1080p Latino 1 link mega, El club de los vándalos (2023) AMZN WEB-DL 1080p Latino 1 link google drive, El club de los vándalos (2023) AMZN WEB-DL 1080p Latino hd 1080p latino.
Comentarios 0