×

¿Problemas para descargar con Mozilla, EDGE? Deshabilita la opción "Abrir vinculos en una pestaña nueva" tal como lo muestra ésta imagen.

El cazador de sueños (2003) REMUX 1080p Latino – CMHDD

251 vistas

Información de El cazador de sueños (2003) REMUX 1080p Latino – CMHDD

Datos de la película

  • Calidad: Full 1080p
  • Audio: Español Latino AC3 2.0 BLURAY - Ingles DTS 5.1 BLURAY
  • Subtitulos: Español Latino PGS
  • Resolución: 1920x1080p
  • Formato: MKV
  • Codec: H.264
  • Encoder: Dracarys
  • Mediainfo: Clic para Mostrar Datos Ver
  • Format                      : Matroska
    Format version              : Version 4
    File size                   : 31.7 GiB
    Duration                    : 2 h 13 min
    Overall bit rate mode       : Variable
    Overall bit rate            : 33.9 Mb/s
    Movie name                  : El cazador de sueños (2003) REMUX 1080p Latino - CMHDD
    Encoded date                : UTC 2021-01-26 13:02:17
    Writing application         : mkvmerge v51.0.0 ('I Wish') 64-bit
    Writing library             : libebml v1.4.0 + libmatroska v1.6.2

    Video
    ID                          : 1
    Format                      : AVC
    Format/Info                 : Advanced Video Codec
    Format profile              : High@L4.1
    Format settings             : CABAC / 2 Ref Frames
    Format settings, CABAC      : Yes
    Format settings, Reference  : 2 frames
    Format settings, GOP        : M=1, N=10
    Codec ID                    : V_MPEG4/ISO/AVC
    Duration                    : 2 h 13 min
    Bit rate mode               : Variable
    Bit rate                    : 30.0 Mb/s
    Width                       : 1 920 pixels
    Height                      : 1 080 pixels
    Display aspect ratio        : 16:9
    Frame rate mode             : Constant
    Frame rate                  : 23.976 (24000/1001) FPS
    Color space                 : YUV
    Chroma subsampling          : 4:2:0
    Bit depth                   : 8 bits
    Scan type                   : Progressive
    Bits/(Pixel*Frame)          : 0.603
    Stream size                 : 28.0 GiB (88%)
    Default                     : Yes
    Forced                      : No

    Audio #1
    ID                          : 2
    Format                      : AC-3
    Format/Info                 : Audio Coding 3
    Commercial name             : Dolby Digital
    Codec ID                    : A_AC3
    Duration                    : 2 h 13 min
    Bit rate mode               : Constant
    Bit rate                    : 192 kb/s
    Channel(s)                  : 2 channels
    Channel layout              : L R
    Sampling rate               : 48.0 kHz
    Frame rate                  : 31.250 FPS (1536 SPF)
    Compression mode            : Lossy
    Stream size                 : 184 MiB (1%)
    Language                    : Spanish
    Service kind                : Complete Main
    Default                     : Yes
    Forced                      : No

    Audio #2
    ID                          : 3
    Format                      : DTS XLL
    Format/Info                 : Digital Theater Systems
    Commercial name             : DTS-HD Master Audio
    Codec ID                    : A_DTS
    Duration                    : 2 h 13 min
    Bit rate mode               : Variable
    Bit rate                    : 3 727 kb/s
    Channel(s)                  : 6 channels
    Channel layout              : C L R Ls Rs LFE
    Sampling rate               : 48.0 kHz
    Frame rate                  : 93.750 FPS (512 SPF)
    Bit depth                   : 24 bits
    Compression mode            : Lossless
    Stream size                 : 3.48 GiB (11%)
    Language                    : English
    Default                     : No
    Forced                      : No

    Text
    ID                          : 4
    Format                      : PGS
    Muxing mode                 : zlib
    Codec ID                    : S_HDMV/PGS
    Codec ID/Info               : Picture based subtitle format used on BDs/HD-DVDs
    Duration                    : 2 h 12 min
    Bit rate                    : 22.4 kb/s
    Count of elements           : 2176
    Stream size                 : 21.2 MiB (0%)
    Language                    : Spanish
    Default                     : No
    Forced                      : No

  • Peso: 31.7 GiB

Sinopsis

Jonesy, Henry, Pete y Beaver, hace veinte años, no eran más que unos niños de una pequeña localidad de Maine, unos niños que encontraron el valor para reaccionar de manera heroica ante la crueldad infantil. Al salvar a un extraño muchacho llamado Duddits, se hicieron de forma imprevista con un quinto amigo en el centro de su círculo. Aún más imprevistos fueron los extraños poderes que él les transmitió, uniéndolos más allá de una amistad normal. Ahora los cuatro son hombres con vidas aparte y problemas diferentes, obsesionados por el recuerdo de su heroísmo y con unos poderes que son más una carga que un don. Cuando un terrible accidente casi acaba con la vida de uno de ellos, al principio no se dan cuenta de que ha vuelto la atmósfera extraña e inquietante que en cierto modo está relacionada con Duddits….

Ficha técnica

Video trailer de la película

Enlaces de descarga

Rip de Bluray

Descargar El cazador de sueños (2003) REMUX 1080p Latino – CMHDD


Aportes de DPeliculasHDmega la pass es:dpeliculashdmega.org Aportes de CinemaniaHD la pass es:cinemaniahdd.com
Guardado en : Ciencia ficción , Drama , Suspenso , Terror

Películas relacionadas

  • Jaula Mental (2022) HD 1080p Latino

    Jaula Mental (2022) HD 1080p Latino

    2022
    Jaula Mental (2022) HD 1080p Latino

    1h 47m 2022

    Descargar Jaula Mental (2022) HD 1080p Latino. Cuando un asesino que imita otros crímenes comienza a...

    Director: Mauro Borrelli

    Género: Crimen

    Actores: Victoria Fox

  • Jaula Mental (2022) PLACEBO Full HD 1080p Latino

    Jaula Mental (2022) PLACEBO Full HD 1080p Latino

    2022
    Jaula Mental (2022) PLACEBO Full HD 1080p Latino

    1h 47m 2022

    Descargar Jaula Mental (2022) PLACEBO Full HD 1080p Latino. Cuando un asesino que imita otros crímenes...

    Director: Mauro Borrelli

    Género: Crimen

    Actores: Victoria Fox

  • Jaula Mental (2022) REMUX 1080p Latino

    Jaula Mental (2022) REMUX 1080p Latino

    2022
    Jaula Mental (2022) REMUX 1080p Latino

    1h 47m 2022

    Descargar Jaula Mental (2022) REMUX 1080p Latino. Cuando un asesino que imita otros crímenes comienza...

    Director: Mauro Borrelli

    Género: Crimen

    Actores: Victoria Fox

  • Transfusion (2023) HD 1080p Latino

    Transfusion (2023) HD 1080p Latino

    2023
    Transfusion (2023) HD 1080p Latino

    1h 45m 2023

    Descargar Transfusion (2023) HD 1080p Latino. Un antiguo agente de las Fuerzas Especiales se ve empujado...

    Director: Matt Nable

    Género: Crimen

    Actores: Trystan Go

  • Transfusion (2023) PLACEBO Full HD 1080p Latino

    Transfusion (2023) PLACEBO Full HD 1080p Latino

    2023
    Transfusion (2023) PLACEBO Full HD 1080p Latino

    1h 45m 2023

    Descargar Transfusion (2023) PLACEBO Full HD 1080p Latino. Un antiguo agente de las Fuerzas Especiales...

    Director: Matt Nable

    Género: Crimen

    Actores: Trystan Go

descargar El cazador de sueños (2003) REMUX 1080p Latino – CMHDD Full 1080p 1080p gratis, El cazador de sueños (2003) REMUX 1080p Latino – CMHDD Full 1080p mega 1 link, El cazador de sueños (2003) REMUX 1080p Latino – CMHDD Full 1080p pelicula completa, descargar El cazador de sueños (2003) REMUX 1080p Latino – CMHDD Full 1080p gratis en mega.

El cazador de sueños (2003) REMUX 1080p Latino – CMHDD pelicula full hd, El cazador de sueños (2003) REMUX 1080p Latino – CMHDD mega latino, El cazador de sueños (2003) REMUX 1080p Latino – CMHDD 4k latino, El cazador de sueños (2003) REMUX 1080p Latino – CMHDD pelicula completa, El cazador de sueños (2003) REMUX 1080p Latino – CMHDD descargar gratis, descargar El cazador de sueños (2003) REMUX 1080p Latino – CMHDD pelicula latino, El cazador de sueños (2003) REMUX 1080p Latino – CMHDD 1 link mega, El cazador de sueños (2003) REMUX 1080p Latino – CMHDD 1 link google drive, El cazador de sueños (2003) REMUX 1080p Latino – CMHDD hd 1080p latino.
Comentarios 0