×

¿Problemas para descargar con Mozilla, EDGE? Deshabilita la opción "Abrir vinculos en una pestaña nueva" tal como lo muestra ésta imagen.

El cazador de sueños (2003) Full HD 1080p Latino – CMHDD

317 vistas

Información de El cazador de sueños (2003) Full HD 1080p Latino – CMHDD

Datos de la película

  • Calidad: Full 1080p
  • Audio: Español Latino AC3 2.0 BLURAY - Ingles DTS 5.1 BLURAY
  • Subtitulos: Español Latino PGS
  • Resolución: 1920x1080p
  • Formato: MKV
  • Codec: H.264
  • Encoder: Dracarys
  • Mediainfo: Clic para Mostrar Datos Ver
  • Format                      : Matroska
    Format version              : Version 4
    File size                   : 11.6 GiB
    Duration                    : 2 h 13 min
    Overall bit rate mode       : Variable
    Overall bit rate            : 12.4 Mb/s
    Movie name                  : El cazador de sueños (2003) Full HD 1080p Latino - CMHDD
    Encoded date                : UTC 2021-01-26 00:34:54
    Writing application         : mkvmerge v51.0.0 ('I Wish') 64-bit
    Writing library             : libebml v1.4.0 + libmatroska v1.6.2

    Video
    ID                          : 1
    Format                      : AVC
    Format/Info                 : Advanced Video Codec
    Format profile              : High@L4.1
    Format settings             : CABAC / 4 Ref Frames
    Format settings, CABAC      : Yes
    Format settings, Reference  : 4 frames
    Codec ID                    : V_MPEG4/ISO/AVC
    Duration                    : 2 h 13 min
    Bit rate                    : 8 454 kb/s
    Width                       : 1 920 pixels
    Height                      : 1 080 pixels
    Display aspect ratio        : 16:9
    Frame rate mode             : Constant
    Frame rate                  : 23.976 (24000/1001) FPS
    Color space                 : YUV
    Chroma subsampling          : 4:2:0
    Bit depth                   : 8 bits
    Scan type                   : Progressive
    Bits/(Pixel*Frame)          : 0.170
    Stream size                 : 7.90 GiB (68%)
    Writing library             : x264 core 157 r2935 545de2f
    Encoding settings           : cabac=1 / ref=4 / deblock=1:0:0 / analyse=0x3:0x133 / me=tesa / subme=11 / psy=1 / psy_rd=1.00:0.00 / mixed_ref=1 / me_range=24 / chroma_me=1 / trellis=2 / 8x8dct=1 / cqm=0 / deadzone=21,11 / fast_pskip=0 / chroma_qp_offset=-2 / threads=24 / lookahead_threads=6 / sliced_threads=0 / nr=0 / decimate=1 / interlaced=0 / bluray_compat=0 / constrained_intra=0 / bframes=16 / b_pyramid=2 / b_adapt=2 / b_bias=0 / direct=3 / weightb=1 / open_gop=0 / weightp=2 / keyint=240 / keyint_min=24 / scenecut=40 / intra_refresh=0 / rc_lookahead=60 / rc=crf / mbtree=1 / crf=20.0 / qcomp=0.60 / qpmin=0 / qpmax=69 / qpstep=4 / vbv_maxrate=62500 / vbv_bufsize=78125 / crf_max=0.0 / nal_hrd=none / filler=0 / ip_ratio=1.40 / aq=1:1.00
    Default                     : Yes
    Forced                      : No
    Color range                 : Limited
    Color primaries             : BT.709
    Transfer characteristics    : BT.709
    Matrix coefficients         : BT.709

    Audio #1
    ID                          : 2
    Format                      : AC-3
    Format/Info                 : Audio Coding 3
    Commercial name             : Dolby Digital
    Codec ID                    : A_AC3
    Duration                    : 2 h 13 min
    Bit rate mode               : Constant
    Bit rate                    : 192 kb/s
    Channel(s)                  : 2 channels
    Channel layout              : L R
    Sampling rate               : 48.0 kHz
    Frame rate                  : 31.250 FPS (1536 SPF)
    Compression mode            : Lossy
    Stream size                 : 184 MiB (2%)
    Language                    : Spanish
    Service kind                : Complete Main
    Default                     : Yes
    Forced                      : No

    Audio #2
    ID                          : 3
    Format                      : DTS XLL
    Format/Info                 : Digital Theater Systems
    Commercial name             : DTS-HD Master Audio
    Codec ID                    : A_DTS
    Duration                    : 2 h 13 min
    Bit rate mode               : Variable
    Bit rate                    : 3 727 kb/s
    Channel(s)                  : 6 channels
    Channel layout              : C L R Ls Rs LFE
    Sampling rate               : 48.0 kHz
    Frame rate                  : 93.750 FPS (512 SPF)
    Bit depth                   : 24 bits
    Compression mode            : Lossless
    Stream size                 : 3.48 GiB (30%)
    Language                    : English
    Default                     : No
    Forced                      : No

    Text
    ID                          : 4
    Format                      : PGS
    Muxing mode                 : zlib
    Codec ID                    : S_HDMV/PGS
    Codec ID/Info               : Picture based subtitle format used on BDs/HD-DVDs
    Duration                    : 2 h 12 min
    Bit rate                    : 22.4 kb/s
    Count of elements           : 2176
    Stream size                 : 21.2 MiB (0%)
    Language                    : Spanish
    Default                     : No
    Forced                      : No

    Menu
    00:00:00.000                : :Chapter 1
    00:06:18.044                : :Chapter 2
    00:13:31.436                : :Chapter 3
    00:20:32.982                : :Chapter 4
    00:30:24.656                : :Chapter 5
    00:36:30.730                : :Chapter 6
    00:46:05.513                : :Chapter 7
    00:52:31.565                : :Chapter 8
    00:59:46.249                : :Chapter 9
    01:05:41.479                : :Chapter 10
    01:10:58.796                : :Chapter 11
    01:21:54.368                : :Chapter 12
    01:30:06.359                : :Chapter 13
    01:35:03.198                : :Chapter 14
    01:40:59.303                : :Chapter 15
    01:47:01.040                : :Chapter 16
    01:53:29.594                : :Chapter 17
    01:59:50.850                : :Chapter 18

  • Peso: 11.6 GiB

Sinopsis

Jonesy, Henry, Pete y Beaver, hace veinte años, no eran más que unos niños de una pequeña localidad de Maine, unos niños que encontraron el valor para reaccionar de manera heroica ante la crueldad infantil. Al salvar a un extraño muchacho llamado Duddits, se hicieron de forma imprevista con un quinto amigo en el centro de su círculo. Aún más imprevistos fueron los extraños poderes que él les transmitió, uniéndolos más allá de una amistad normal. Ahora los cuatro son hombres con vidas aparte y problemas diferentes, obsesionados por el recuerdo de su heroísmo y con unos poderes que son más una carga que un don. Cuando un terrible accidente casi acaba con la vida de uno de ellos, al principio no se dan cuenta de que ha vuelto la atmósfera extraña e inquietante que en cierto modo está relacionada con Duddits….

Ficha técnica

Video trailer de la película

Enlaces de descarga

Rip de Bluray

Descargar El cazador de sueños (2003) Full HD 1080p Latino – CMHDD




Aportes de DPeliculasHDmega la pass es:dpeliculashdmega.org Aportes de CinemaniaHD la pass es:cinemaniahdd.com
Guardado en : Ciencia ficción , Drama , Suspenso , Terror

Películas relacionadas

  • El discurso del Rey (2010) 1080p Latino

    El discurso del Rey (2010) 1080p Latino

    2010
    El discurso del Rey (2010) 1080p Latino

    1h 58m 2010

    Descargar El discurso del Rey (2010) 1080p Latino. El duque de York se convirtió en rey de Gran Bretaña...

    Director: Tom Hooper

    Género: Drama

    Actores: Tony Earnshaw

  • El discurso del Rey (2010) Full HD 1080p Latino

    El discurso del Rey (2010) Full HD 1080p Latino

    2010
    El discurso del Rey (2010) Full HD 1080p Latino

    1h 58m 2010

    Descargar El discurso del Rey (2010) Full HD 1080p Latino. El duque de York se convirtió en rey de Gran...

    Director: Tom Hooper

    Género: Drama

    Actores: Tony Earnshaw

  • El discurso del Rey (2010) REMUX 1080p Latino

    El discurso del Rey (2010) REMUX 1080p Latino

    2010
    El discurso del Rey (2010) REMUX 1080p Latino

    1h 58m 2010

    Descargar El discurso del Rey (2010) REMUX 1080p Latino. El duque de York se convirtió en rey de Gran...

    Director: Tom Hooper

    Género: Drama

    Actores: Tony Earnshaw

  • 8 Mile (2002) REMUX 4K HDR Latino – CMHDD

    8 Mile (2002) REMUX 4K HDR Latino – CMHDD

    2002
    8 Mile (2002) REMUX 4K HDR Latino – CMHDD

    1h 50m 2002

    Detroit, 1995. La promesa de potencia industrial se ha transformado en un hervidero de conflictos económicos...

    Director: Michael J. Moore

    Género: Drama

    Actores: Xzibit

descargar El cazador de sueños (2003) Full HD 1080p Latino – CMHDD Full 1080p 1080p gratis, El cazador de sueños (2003) Full HD 1080p Latino – CMHDD Full 1080p mega 1 link, El cazador de sueños (2003) Full HD 1080p Latino – CMHDD Full 1080p pelicula completa, descargar El cazador de sueños (2003) Full HD 1080p Latino – CMHDD Full 1080p gratis en mega.

El cazador de sueños (2003) Full HD 1080p Latino – CMHDD pelicula full hd, El cazador de sueños (2003) Full HD 1080p Latino – CMHDD mega latino, El cazador de sueños (2003) Full HD 1080p Latino – CMHDD 4k latino, El cazador de sueños (2003) Full HD 1080p Latino – CMHDD pelicula completa, El cazador de sueños (2003) Full HD 1080p Latino – CMHDD descargar gratis, descargar El cazador de sueños (2003) Full HD 1080p Latino – CMHDD pelicula latino, El cazador de sueños (2003) Full HD 1080p Latino – CMHDD 1 link mega, El cazador de sueños (2003) Full HD 1080p Latino – CMHDD 1 link google drive, El cazador de sueños (2003) Full HD 1080p Latino – CMHDD hd 1080p latino.
Comentarios 2
  • PABLO - 26 enero, 2021

    Hola amigo, puedes subirla a más servidores por favooorrr!!!
    Gracias!

    • Dracarys - 26 enero, 2021

      Agregado MEGA y 1Fichier