×

¿Problemas para descargar con Mozilla, EDGE? Deshabilita la opción "Abrir vinculos en una pestaña nueva" tal como lo muestra ésta imagen.

El Cazador de recompensas (2020) REMUX 1080p Latino

241 vistas

Información de El Cazador de recompensas (2020) REMUX 1080p Latino

Datos de la película

  • Calidad: Full 1080p
  • Audio: Se especifica abajo de la Sinopsis
  • Subtitulos: Español Latino SRT- FORZADOS SRT
  • Resolución: 1920x1080p
  • Formato: MKV
  • Codec: H.264
  • Encoder: Melkor
  • Mediainfo: Clic para Mostrar Datos Ver
  • El Cazador de recompensas (2020) REMUX 1080p Latino.mkv
    Format                      : Matroska
    Format version              : Version 4
    File size                   : 18.4 GiB
    Duration                    : 2 h 19 min
    Overall bit rate mode       : Variable
    Overall bit rate            : 18.9 Mb/s
    Movie name                  : A Soldier's Revenge (2020) CinemaniaHDD.Net
    Encoded date                : UTC 2021-03-15 00:47:12
    Writing application         : mkvmerge v51.0.0 ('I Wish') 64-bit
    Writing library             : libebml v1.4.0 + libmatroska v1.6.2
    Attachments                 : CINEMANIAHD.png

    Video
    ID                          : 1
    Format                      : AVC
    Format/Info                 : Advanced Video Codec
    Format profile              : High@L4.1
    Format settings             : CABAC / 4 Ref Frames
    Format settings, CABAC      : Yes
    Format settings, Reference  : 4 frames
    Codec ID                    : V_MPEG4/ISO/AVC
    Duration                    : 2 h 19 min
    Bit rate mode               : Constant
    Bit rate                    : 17.0 Mb/s
    Width                       : 1 920 pixels
    Height                      : 1 080 pixels
    Display aspect ratio        : 16:9
    Frame rate mode             : Constant
    Frame rate                  : 23.976 (24000/1001) FPS
    Color space                 : YUV
    Chroma subsampling          : 4:2:0
    Bit depth                   : 8 bits
    Scan type                   : Progressive
    Bits/(Pixel*Frame)          : 0.342
    Stream size                 : 15.9 GiB (86%)
    Title                       : REMUX HD1080p [CinemaniaHDD]
    Language                    : English
    Default                     : Yes
    Forced                      : No

    Audio #1
    ID                          : 2
    Format                      : AC-3
    Format/Info                 : Audio Coding 3
    Commercial name             : Dolby Digital
    Codec ID                    : A_AC3
    Duration                    : 2 h 19 min
    Bit rate mode               : Constant
    Bit rate                    : 256 kb/s
    Channel(s)                  : 2 channels
    Channel layout              : L R
    Sampling rate               : 48.0 kHz
    Frame rate                  : 31.250 FPS (1536 SPF)
    Compression mode            : Lossy
    Stream size                 : 256 MiB (1%)
    Title                       : Español Latino [CinemaniaHDD]
    Language                    : Spanish
    Service kind                : Complete Main
    Default                     : Yes
    Forced                      : No

    Audio #2
    ID                          : 3
    Format                      : DTS XLL
    Format/Info                 : Digital Theater Systems
    Commercial name             : DTS-HD Master Audio
    Codec ID                    : A_DTS
    Duration                    : 2 h 19 min
    Bit rate mode               : Variable
    Bit rate                    : 2 396 kb/s
    Channel(s)                  : 6 channels
    Channel layout              : C L R Ls Rs LFE
    Sampling rate               : 48.0 kHz
    Frame rate                  : 93.750 FPS (512 SPF)
    Bit depth                   : 16 bits
    Compression mode            : Lossless
    Stream size                 : 2.34 GiB (13%)
    Title                       : Ingles [CinemaniaHDD]
    Language                    : English
    Default                     : No
    Forced                      : No

    Text #1
    ID                          : 4
    Format                      : UTF-8
    Codec ID                    : S_TEXT/UTF8
    Codec ID/Info               : UTF-8 Plain Text
    Duration                    : 13 s 972 ms
    Bit rate                    : 67 b/s
    Count of elements           : 2
    Stream size                 : 118 Bytes (0%)
    Title                       : Forzados-SRT [CinemaniaHDD]
    Language                    : Spanish
    Default                     : Yes
    Forced                      : No

    Text #2
    ID                          : 5
    Format                      : UTF-8
    Codec ID                    : S_TEXT/UTF8
    Codec ID/Info               : UTF-8 Plain Text
    Duration                    : 2 h 13 min
    Bit rate                    : 49 b/s
    Count of elements           : 1422
    Stream size                 : 48.1 KiB (0%)
    Title                       : Español-SRT [CinemaniaHDD]
    Language                    : Spanish
    Default                     : No
    Forced                      : No

    Text #3
    ID                          : 6
    Format                      : UTF-8
    Codec ID                    : S_TEXT/UTF8
    Codec ID/Info               : UTF-8 Plain Text
    Duration                    : 2 h 12 min
    Bit rate                    : 43 b/s
    Count of elements           : 1548
    Stream size                 : 42.5 KiB (0%)
    Title                       : Ingles-SRT [CinemaniaHDD]
    Language                    : English
    Default                     : No
    Forced                      : No

    Menu
    00:00:00.000                : en:Chapter 01
    00:13:26.764                : en:Chapter 02
    00:20:39.905                : en:Chapter 03
    00:32:31.240                : en:Chapter 04
    00:44:25.704                : en:Chapter 05
    00:57:16.933                : en:Chapter 06
    01:09:32.334                : en:Chapter 07
    01:17:58.048                : en:Chapter 08
    01:29:27.153                : en:Chapter 09
    01:43:40.297                : en:Chapter 10
    01:59:42.175                : en:Chapter 11
    02:14:33.273                : en:Chapter 12

  • Peso: 18.4 GiB

Sinopsis

Descargar El Cazador de recompensas (2020) REMUX 1080p Latino. Perseguido por los horrores de la guerra, el soldado de la Guerra Civil convertido en cazarrecompensas Frank Connor pasa su tiempo de posguerra puliendo dos cosas: whisky y fugitivos. Cuando dos niños desesperados llegan a la puerta de su casa y solicitan su ayuda para encontrar a su madre desaparecida, Frank debe enfrentar su pasado para acabar con el notorio Mayor Briggs, con quien tiene una cuenta que saldar.

Español Latino AC3 2.0 WebDL – Ingles DTS-HD 5.1 Bluray

Ficha técnica

  • Titulo original: A Soldier's Revenge
  • Fecha de lanzamiento: 16-06-2020 (United States of America)
  • Director: Michael Feifer
  • Género: Remux, Western

Video trailer de la película

Enlaces de descarga

Rip de Bluray

Descargar El Cazador de recompensas (2020) REMUX 1080p Latino




Aportes de DPeliculasHDmega la pass es:dpeliculashdmega.org Aportes de CinemaniaHD la pass es:cinemaniahdd.com
Guardado en : Remux , Western

Películas relacionadas

  • Jaula Mental (2022) REMUX 1080p Latino

    Jaula Mental (2022) REMUX 1080p Latino

    2022
    Jaula Mental (2022) REMUX 1080p Latino

    1h 47m 2022

    Descargar Jaula Mental (2022) REMUX 1080p Latino. Cuando un asesino que imita otros crímenes comienza...

    Director: Mauro Borrelli

    Género: Crimen

    Actores: Victoria Fox

  • Transfusion (2023) REMUX 1080p Latino

    Transfusion (2023) REMUX 1080p Latino

    2023
    Transfusion (2023) REMUX 1080p Latino

    1h 45m 2023

    Descargar Transfusion (2023) REMUX 1080p Latino. Un antiguo agente de las Fuerzas Especiales se ve empujado...

    Director: Matt Nable

    Género: Crimen

    Actores: Trystan Go

  • Gladiador (2000) EXTENDED CUT 1080p Latino

    Gladiador (2000) EXTENDED CUT 1080p Latino

    2000
    Gladiador (2000) EXTENDED CUT 1080p Latino

    2h 35m 2000

    Gladiador (2000) EXTENDED CUT 1080p Latino. Máximo, General de las Legiones Romanas, es querido por...

    Director: Ridley Scott

    Género: Acción

    Actores: Tony Curran

  • Mi amigo el dragón (2016) REMUX 1080p Latino

    Mi amigo el dragón (2016) REMUX 1080p Latino

    2016
    Mi amigo el dragón (2016) REMUX 1080p Latino

    1h 43m 2016

    Descargar Mi amigo el dragón (2016) REMUX 1080p Latino. Durante años el Sr. Meacham, un viejo tallador...

    Director: Joe Nolan

    Género: Aventura

    Actores: William J. Rawbone

  • El discurso del Rey (2010) REMUX 1080p Latino

    El discurso del Rey (2010) REMUX 1080p Latino

    2010
    El discurso del Rey (2010) REMUX 1080p Latino

    1h 58m 2010

    Descargar El discurso del Rey (2010) REMUX 1080p Latino. El duque de York se convirtió en rey de Gran...

    Director: Tom Hooper

    Género: Drama

    Actores: Tony Earnshaw

descargar El Cazador de recompensas (2020) REMUX 1080p Latino Full 1080p 1080p gratis, El Cazador de recompensas (2020) REMUX 1080p Latino Full 1080p mega 1 link, El Cazador de recompensas (2020) REMUX 1080p Latino Full 1080p pelicula completa, descargar El Cazador de recompensas (2020) REMUX 1080p Latino Full 1080p gratis en mega.

El Cazador de recompensas (2020) REMUX 1080p Latino pelicula full hd, El Cazador de recompensas (2020) REMUX 1080p Latino mega latino, El Cazador de recompensas (2020) REMUX 1080p Latino 4k latino, El Cazador de recompensas (2020) REMUX 1080p Latino pelicula completa, El Cazador de recompensas (2020) REMUX 1080p Latino descargar gratis, descargar El Cazador de recompensas (2020) REMUX 1080p Latino pelicula latino, El Cazador de recompensas (2020) REMUX 1080p Latino 1 link mega, El Cazador de recompensas (2020) REMUX 1080p Latino 1 link google drive, El Cazador de recompensas (2020) REMUX 1080p Latino hd 1080p latino.
Comentarios 0