×

¿Problemas para descargar con Mozilla, EDGE? Deshabilita la opción "Abrir vinculos en una pestaña nueva" tal como lo muestra ésta imagen.

El Cazador de recompensas (2020) HD 1080p Latino

220 vistas

Información de El Cazador de recompensas (2020) HD 1080p Latino

Datos de la película

  • Calidad: 1080p
  • Audio: Español Latino AC3 2.0 WEB-DL - Ingles AC3 5.1 BLURAY
  • Subtitulos: Español Latino SRT- FORZADOS SRT
  • Resolución: 1920x816p
  • Formato: MKV
  • Codec: H.264
  • Encoder: Melkor
  • Mediainfo: Clic para Mostrar Datos Ver
  • El Cazador de recompensas (2020) HD 1080p Latino.mkv
    Format                      : Matroska
    Format version              : Version 4
    File size                   : 3.96 GiB
    Duration                    : 2 h 19 min
    Overall bit rate            : 4 060 kb/s
    Movie name                  : A Soldier's Revenge (2020) CinemaniaHDD.Net
    Encoded date                : UTC 2021-03-19 07:26:58
    Writing application         : mkvmerge v51.0.0 ('I Wish') 64-bit
    Writing library             : libebml v1.4.0 + libmatroska v1.6.2
    Attachments                 : CINEMANIAHD.png

    Video
    ID                          : 1
    Format                      : AVC
    Format/Info                 : Advanced Video Codec
    Format profile              : High@L4.1
    Format settings             : CABAC / 5 Ref Frames
    Format settings, CABAC      : Yes
    Format settings, Reference  : 5 frames
    Codec ID                    : V_MPEG4/ISO/AVC
    Duration                    : 2 h 19 min
    Bit rate                    : 3 354 kb/s
    Width                       : 1 920 pixels
    Height                      : 816 pixels
    Display aspect ratio        : 2.35:1
    Frame rate mode             : Constant
    Frame rate                  : 23.976 (24000/1001) FPS
    Color space                 : YUV
    Chroma subsampling          : 4:2:0
    Bit depth                   : 8 bits
    Scan type                   : Progressive
    Bits/(Pixel*Frame)          : 0.089
    Stream size                 : 3.27 GiB (83%)
    Title                       : HD1080p [CinemaniaHDD]
    Writing library             : x264 core 157 r2935 545de2f
    Encoding settings           : cabac=1 / ref=5 / deblock=1:-1:-1 / analyse=0x3:0x133 / me=umh / subme=9 / psy=1 / psy_rd=1.00:0.15 / mixed_ref=1 / me_range=16 / chroma_me=1 / trellis=2 / 8x8dct=1 / cqm=0 / deadzone=21,11 / fast_pskip=1 / chroma_qp_offset=-3 / threads=24 / lookahead_threads=2 / sliced_threads=0 / nr=0 / decimate=1 / interlaced=0 / bluray_compat=0 / constrained_intra=0 / bframes=3 / b_pyramid=2 / b_adapt=2 / b_bias=0 / direct=3 / weightb=1 / open_gop=0 / weightp=2 / keyint=240 / keyint_min=24 / scenecut=40 / intra_refresh=0 / rc_lookahead=60 / rc=crf / mbtree=1 / crf=21.0 / qcomp=0.60 / qpmin=0 / qpmax=69 / qpstep=4 / vbv_maxrate=62500 / vbv_bufsize=78125 / crf_max=0.0 / nal_hrd=none / filler=0 / ip_ratio=1.40 / aq=1:1.00
    Default                     : Yes
    Forced                      : Yes
    Color range                 : Limited
    Color primaries             : BT.709
    Transfer characteristics    : BT.709
    Matrix coefficients         : BT.709

    Audio #1
    ID                          : 2
    Format                      : AC-3
    Format/Info                 : Audio Coding 3
    Commercial name             : Dolby Digital
    Codec ID                    : A_AC3
    Duration                    : 2 h 19 min
    Bit rate mode               : Constant
    Bit rate                    : 256 kb/s
    Channel(s)                  : 2 channels
    Channel layout              : L R
    Sampling rate               : 48.0 kHz
    Frame rate                  : 31.250 FPS (1536 SPF)
    Compression mode            : Lossy
    Delay relative to video     : -5 ms
    Stream size                 : 256 MiB (6%)
    Title                       : Español Latino [CinemaniaHDD]
    Language                    : Spanish
    Service kind                : Complete Main
    Default                     : Yes
    Forced                      : Yes

    Audio #2
    ID                          : 3
    Format                      : AC-3
    Format/Info                 : Audio Coding 3
    Commercial name             : Dolby Digital
    Codec ID                    : A_AC3
    Duration                    : 2 h 19 min
    Bit rate mode               : Constant
    Bit rate                    : 448 kb/s
    Channel(s)                  : 6 channels
    Channel layout              : L R C LFE Ls Rs
    Sampling rate               : 48.0 kHz
    Frame rate                  : 31.250 FPS (1536 SPF)
    Compression mode            : Lossy
    Delay relative to video     : -5 ms
    Stream size                 : 448 MiB (11%)
    Title                       : Ingles [CinemaniaHDD]
    Language                    : English
    Service kind                : Complete Main
    Default                     : No
    Forced                      : No

    Text #1
    ID                          : 4
    Format                      : UTF-8
    Codec ID                    : S_TEXT/UTF8
    Codec ID/Info               : UTF-8 Plain Text
    Duration                    : 13 s 972 ms
    Bit rate                    : 67 b/s
    Count of elements           : 2
    Stream size                 : 118 Bytes (0%)
    Title                       : Forzados-SRT [CinemaniaHDD]
    Language                    : Spanish
    Default                     : Yes
    Forced                      : Yes

    Text #2
    ID                          : 5
    Format                      : UTF-8
    Codec ID                    : S_TEXT/UTF8
    Codec ID/Info               : UTF-8 Plain Text
    Duration                    : 2 h 13 min
    Bit rate                    : 49 b/s
    Count of elements           : 1422
    Stream size                 : 48.1 KiB (0%)
    Title                       : Español-SRT [CinemaniaHDD]
    Language                    : Spanish
    Default                     : No
    Forced                      : No

    Text #3
    ID                          : 6
    Format                      : UTF-8
    Codec ID                    : S_TEXT/UTF8
    Codec ID/Info               : UTF-8 Plain Text
    Duration                    : 2 h 12 min
    Bit rate                    : 43 b/s
    Count of elements           : 1548
    Stream size                 : 42.5 KiB (0%)
    Title                       : Ingles-SRT [CinemaniaHDD]
    Language                    : English
    Default                     : No
    Forced                      : No

    Menu
    00:00:00.000                : en:Chapter 01
    00:13:26.764                : en:Chapter 02
    00:20:39.905                : en:Chapter 03
    00:32:31.240                : en:Chapter 04
    00:44:25.704                : en:Chapter 05
    00:57:16.933                : en:Chapter 06
    01:09:32.334                : en:Chapter 07
    01:17:58.048                : en:Chapter 08
    01:29:27.153                : en:Chapter 09
    01:43:40.297                : en:Chapter 10
    01:59:42.175                : en:Chapter 11
    02:14:33.273                : en:Chapter 12

  • Peso: 3.96 GiB

Sinopsis

Descargar El Cazador de recompensas (2020) HD 1080p Latino. Perseguido por los horrores de la guerra, el soldado de la Guerra Civil convertido en cazarrecompensas Frank Connor pasa su tiempo de posguerra puliendo dos cosas: whisky y fugitivos. Cuando dos niños desesperados llegan a la puerta de su casa y solicitan su ayuda para encontrar a su madre desaparecida, Frank debe enfrentar su pasado para acabar con el notorio Mayor Briggs, con quien tiene una cuenta que saldar.

Ficha técnica

  • Titulo original: A Soldier's Revenge
  • Fecha de lanzamiento: 16-06-2020 (United States of America)
  • Director: Michael Feifer
  • Género: HD 1080p, Western

Video trailer de la película

Enlaces de descarga

Rip de Bluray

Descargar El Cazador de recompensas (2020) HD 1080p Latino




Aportes de DPeliculasHDmega la pass es:dpeliculashdmega.org Aportes de CinemaniaHD la pass es:cinemaniahdd.com
Guardado en : HD 1080p , Western

Películas relacionadas

  • La familia Monster (2022) HD 1080p Latino

    La familia Monster (2022) HD 1080p Latino

    2022
    La familia Monster (2022) HD 1080p Latino

    1h 49m 2022

    Descargar La familia Monster (2022) HD 1080p Latino. Reboot de "The Munsters", que sigue las desventuras...

    Director: Rob Zombie

    Género: Comedia

    Actores: Tomas Boykin

  • Venganza (2022) HD 1080p Latino

    Venganza (2022) HD 1080p Latino

    2022
    Venganza (2022) HD 1080p Latino

    1h 47m 2022

    Descargar Venganza (2022) HD 1080p Latino. Ben Manalowitz, periodista y presentador de podcasts, viaja...

    Director: Tara Hunter

    Género: Comedia

    Actores: Zach Villa

  • Venganza y redención (2022) HD 1080p Latino

    Venganza y redención (2022) HD 1080p Latino

    2022
    Venganza y redención (2022) HD 1080p Latino

    1h 33m 2022

    Descargar Venganza y redención [Elefante Blanco] (2022) HD 1080p Latino. Un ex miembro de la Marina...

    Director: Jesse V. Johnson

    Género: Acción

    Actores: Vadhir Derbez

  • Red Stone (2021) HD 1080p Latino

    Red Stone (2021) HD 1080p Latino

    2021
    Red Stone (2021) HD 1080p Latino

    1h 40m 2021

    Descargar Red Stone (2021) HD 1080p Latino. Un peligroso asesino a sueldo (Neal McDonough) tiene la tarea...

    Director: Jazzie Dash

    Género: Crimen

    Actores: Robert Johnson

descargar El Cazador de recompensas (2020) HD 1080p Latino 1080p 1080p gratis, El Cazador de recompensas (2020) HD 1080p Latino 1080p mega 1 link, El Cazador de recompensas (2020) HD 1080p Latino 1080p pelicula completa, descargar El Cazador de recompensas (2020) HD 1080p Latino 1080p gratis en mega.

El Cazador de recompensas (2020) HD 1080p Latino pelicula full hd, El Cazador de recompensas (2020) HD 1080p Latino mega latino, El Cazador de recompensas (2020) HD 1080p Latino 4k latino, El Cazador de recompensas (2020) HD 1080p Latino pelicula completa, El Cazador de recompensas (2020) HD 1080p Latino descargar gratis, descargar El Cazador de recompensas (2020) HD 1080p Latino pelicula latino, El Cazador de recompensas (2020) HD 1080p Latino 1 link mega, El Cazador de recompensas (2020) HD 1080p Latino 1 link google drive, El Cazador de recompensas (2020) HD 1080p Latino hd 1080p latino.
Comentarios 0