El castillo de cristal (2017) 1080p Latino

969 vistas
1 estrella2 estrellas3 estrellas4 estrellas5 estrellas (2 votos, promedio: 3,00 de 5)
Cargando…

Información de El castillo de cristal (2017) 1080p Latino

Datos de la película

  • Calidad: 1080p
  • Audio: Español Latino AC3 5.1 BLURAY - Ingles AC3 5.1 BLURAY
  • Subtitulos: Español Latino PGS
  • Resolución: 1920X798
  • Formato: MKV
  • Codec: H.264
  • Encoder: Dpelis
  • Mediainfo: Clic para Mostrar Datos Ver
  • Format                                   : Matroska
    Format version                           : Version 4 / Version 2
    File size                                : 3.75 GiB
    Duration                                 : 2 h 6 min
    Overall bit rate                         : 4 231 kb/s
    Movie name                               : dpeliculashdmega.org
    Encoded date                             : UTC 2017-11-03 16:56:10 / UTC 2017-11-03T09:10:50Z
    Writing application                      : mkvmerge v15.0.0 ('Duel with the Devil') 64-bit
    Writing library                          : libebml v1.3.5 + libmatroska v1.4.5 / Lavf57.7.2

    Video
    ID                                       : 1
    Format                                   : AVC
    Format/Info                              : Advanced Video Codec
    Format profile                           : [email protected]
    Format settings                          : CABAC / 5 Ref Frames
    Format settings, CABAC                   : Yes
    Format settings, RefFrames               : 5 frames
    Codec ID                                 : V_MPEG4/ISO/AVC
    Duration                                 : 2 h 6 min
    Bit rate                                 : 3 500 kb/s
    Width                                    : 1 920 pixels
    Height                                   : 798 pixels
    Display aspect ratio                     : 2.40:1
    Frame rate mode                          : Constant
    Frame rate                               : 23.976 (24000/1001) FPS
    Color space                              : YUV
    Chroma subsampling                       : 4:2:0
    Bit depth                                : 8 bits
    Scan type                                : Progressive
    Bits/(Pixel*Frame)                       : 0.095
    Stream size                              : 3.00 GiB (80%)
    Title                                    : El castillo de cristal (2017) 1080p Latino
    Writing library                          : x264 core 148 r2708 86b7198
    Encoding settings                        : cabac=1 / ref=5 / deblock=1:0:0 / analyse=0x3:0x113 / me=umh / subme=8 / psy=1 / psy_rd=1.00:0.00 / mixed_ref=1 / me_range=16 / chroma_me=1 / trellis=1 / 8x8dct=1 / cqm=0 / deadzone=21,11 / fast_pskip=1 / chroma_qp_offset=-2 / threads=25 / lookahead_threads=4 / sliced_threads=0 / nr=0 / decimate=1 / interlaced=0 / bluray_compat=0 / constrained_intra=0 / bframes=3 / b_pyramid=2 / b_adapt=2 / b_bias=0 / direct=3 / weightb=1 / open_gop=0 / weightp=2 / keyint=240 / keyint_min=24 / scenecut=40 / intra_refresh=0 / rc_lookahead=50 / rc=abr / mbtree=1 / bitrate=3500 / ratetol=1.0 / qcomp=0.60 / qpmin=0 / qpmax=69 / qpstep=4 / vbv_maxrate=62500 / vbv_bufsize=78125 / nal_hrd=none / filler=0 / ip_ratio=1.40 / aq=1:1.00
    Language                                 : English
    Default                                  : Yes
    Forced                                   : No
    Color range                              : Limited
    Color primaries                          : BT.709
    Transfer characteristics                 : BT.709
    Matrix coefficients                      : BT.709
    Statistics Tags Issue                    : mkvmerge v15.0.0 ('Duel with the Devil') 64-bit 2017-11-03 16:56:10 / mkvmerge v15.0.0 ('Duel with the Devil') 64-bit 2017-11-03 16:56:10 / UTC 2017-11-03T09:10:50Z
    FromStats_BitRate                        : 3443118
    FromStats_Duration                       : 02:06:56.651000000
    FromStats_FrameCount                     : 182617
    FromStats_StreamSize                     : 3278129380

    Audio #1
    ID                                       : 2
    Format                                   : AC-3
    Format/Info                              : Audio Coding 3
    Format settings, Endianness              : Big
    Codec ID                                 : A_AC3
    Duration                                 : 2 h 6 min
    Bit rate mode                            : Constant
    Bit rate                                 : 384 kb/s
    Channel(s)                               : 6 channels
    Channel positions                        : Front: L C R, Side: L R, LFE
    Sampling rate                            : 48.0 kHz
    Frame rate                               : 31.250 FPS (1536 SPF)
    Bit depth                                : 16 bits
    Compression mode                         : Lossy
    Delay relative to video                  : -5 ms
    Stream size                              : 349 MiB (9%)
    Title                                    : Latino-AC3
    Language                                 : Spanish
    Service kind                             : Complete Main
    Default                                  : Yes
    Forced                                   : No
    Statistics Tags Issue                    : mkvmerge v15.0.0 ('Duel with the Devil') 64-bit 2017-11-03 16:56:10 / mkvmerge v15.0.0 ('Duel with the Devil') 64-bit 2017-11-03 16:56:10 / UTC 2017-11-03T09:10:50Z
    FromStats_BitRate                        : 384000
    FromStats_Duration                       : 02:06:56.864000000
    FromStats_FrameCount                     : 238027
    FromStats_StreamSize                     : 365609472

    Audio #2
    ID                                       : 3
    Format                                   : AC-3
    Format/Info                              : Audio Coding 3
    Format settings, Endianness              : Big
    Codec ID                                 : A_AC3
    Duration                                 : 2 h 6 min
    Bit rate mode                            : Constant
    Bit rate                                 : 384 kb/s
    Channel(s)                               : 6 channels
    Channel positions                        : Front: L C R, Side: L R, LFE
    Sampling rate                            : 48.0 kHz
    Frame rate                               : 31.250 FPS (1536 SPF)
    Bit depth                                : 16 bits
    Compression mode                         : Lossy
    Delay relative to video                  : -5 ms
    Stream size                              : 349 MiB (9%)
    Title                                    : Ingles-AC3
    Language                                 : English
    Service kind                             : Complete Main
    Default                                  : No
    Forced                                   : No
    Statistics Tags Issue                    : mkvmerge v15.0.0 ('Duel with the Devil') 64-bit 2017-11-03 16:56:10 / mkvmerge v15.0.0 ('Duel with the Devil') 64-bit 2017-11-03 16:56:10 / UTC 2017-11-03T09:10:50Z
    FromStats_BitRate                        : 384000
    FromStats_Duration                       : 02:06:56.640000000
    FromStats_FrameCount                     : 238020
    FromStats_StreamSize                     : 365598720

    Text
    ID                                       : 4
    Format                                   : PGS
    Muxing mode                              : zlib
    Codec ID                                 : S_HDMV/PGS
    Codec ID/Info                            : Picture based subtitle format used on BDs/HD-DVDs
    Language                                 : Spanish
    Default                                  : No
    Forced                                   : No
    Statistics Tags Issue                    : mkvmerge v15.0.0 ('Duel with the Devil') 64-bit 2017-11-03 16:56:10 / mkvmerge v15.0.0 ('Duel with the Devil') 64-bit 2017-11-03 16:56:10 / UTC 2017-11-03T09:10:50Z
    FromStats_BitRate                        : 36783
    FromStats_Duration                       : 02:06:16.214000000
    FromStats_FrameCount                     : 2858
    FromStats_StreamSize                     : 34835312

    Menu
    00:00:00.000                             : :00:00:00.000
    00:08:15.453                             : :00:08:15.453
    00:15:33.182                             : :00:15:33.182
    00:21:33.334                             : :00:21:33.292
    00:29:25.931                             : :00:29:25.931
    00:37:11.271                             : :00:37:11.187
    00:43:54.841                             : :00:43:54.840
    00:51:53.485                             : :00:51:53.485
    01:00:29.334                             : :01:00:29.334
    01:07:59.659                             : :01:07:59.659
    01:14:05.816                             : :01:14:05.816
    01:24:52.504                             : :01:24:52.504
    01:29:27.696                             : :01:29:27.696
    01:37:47.236                             : :01:37:47.236
    01:45:53.264                             : :01:45:53.263
    01:55:49.484                             : :01:55:49.484

  • Peso: 3.75 GiB

Sinopsis

La periodista Jeannette Walls (Brie Larson) decide escribir un libro sobre sus años de niñez y adolescencia en el seno de una familia excéntrica, disfuncional y nómada como terapia para reconciliarse con su pasado. Su vida ha estado marcada por su padre, un hombre carismático y entusiasta, capaz de transmitir a sus hijos la pasión de vivir a pesar de su alcoholismo destructivo. Además de por su madre, una pintora de espíritu libre que no quiere asumir su papel de madre de cuatro hijos. Juntos conviven en un hogar inestable y sin rumbo, pero siendo una familia que ama a pesar de las adversidades.

Basada en el libro autobiográfico The Glass Castle, escrito por la propia Jeannette Walls, dirige este filme dramático Destin Daniel Cretton (Las vidas de Grace, I Am Not a Hipster), que co-escribe el guión junto a Andrew Lanham (La cabaña). El reparto protagonista está encabezado por la ganadora del Oscar Brie Larson (Kong: La Isla Calavera, La habitación), además de Woody Harrelson (La guerra del planeta de los simios, Ahora me ves 2), Max Greenfield (American Crime Story, La gran apuesta) y Naomi Watts (Twin Peaks, La serie Divergente: Leal).

Ficha técnica

Video trailer de la película

Enlaces de descarga

Rip de Bluray

Descargar El castillo de cristal (2017) 1080p Latino




Aportes de DPeliculasHDmega la pass es:dpeliculashdmega.org Aportes de CinemaniaHD la pass es:cinemaniahdd.com
Guardado en : Drama

Películas relacionadas

  • La favorita (2018) 1080p Latino

    2018
    La favorita (2018) 1080p Latino

    0.0 2h 0m 2018

    Descargar La favorita (2018) 1080p Latino, Mega, Google Drive, Torrent. Principios del siglo XVIII. Inglaterra...

    Director: Yorgos Lanthimos

    Género: Comedia

    Actores: Wilson Radjou-Pujalte

  • Painless (2017) WEB-DL 1080p Latino

    2017
    Painless (2017) WEB-DL 1080p Latino

    0.0 1h 21m 2017

    Henry Long busca desesperadamente una cura para la afección que lo deja incapaz de sentir dolor físico.

    Director: Jordan Horowitz

    Género: Drama

    Actores: Valeria Sistrunk

  • Suburra (2019) Temporada 2 NF 1080p Latino

    2017
    Suburra (2019) Temporada 2 NF 1080p Latino

    0.0 0h 52m 2017

    Suburra (2019) Temporada 2 NF 1080p Latino, En 2008, una lucha por la tierra en una ciudad costera cerca...

    Director: Daniele Cesarano

    Género: Crimen

    Actores: Giacomo Ferrara

  • Suburra (2017) Temporada 1 NF 1080p Latino

    2017
    Suburra (2017) Temporada 1 NF 1080p Latino

    0.0 0h 52m 2017

    En 2008, una lucha por la tierra en una ciudad costera cerca de Roma se convierte en una batalla mortal...

    Director: Daniele Cesarano

    Género: Crimen

    Actores: Giacomo Ferrara

Comentarios 0