El Cascanueces y los Cuatro Reinos (2018) Full HD 1080p Latino

1.613 vistas
1 estrella2 estrellas3 estrellas4 estrellas5 estrellas (Ninguna valoración todavía)
Cargando…

Información de El Cascanueces y los Cuatro Reinos (2018) Full HD 1080p Latino

Datos de la película

  • Calidad: Full 1080p
  • Audio: Español Latino AC3 5.1 BLURAY - Ingles DTS 5.1 BLURAY
  • Subtitulos: Español Latino PGS - Ingles PGS
  • Resolución: 1920x1080
  • Formato: MKV
  • Codec: H.264
  • Encoder: Chesse92
  • Mediainfo: Clic para Mostrar Datos Ver
  • The Nutcracker and the Four Realms (2018) Full HD 1080p Latino (PLACEBO).mkv
    Format                      : Matroska
    Format version              : Version 4
    File size                   : 5.90 GiB
    Duration                    : 1 h 39 min
    Overall bit rate            : 8 516 kb/s
    Movie name                  : CinemaniaHDD.net
    Encoded date                : UTC 2019-02-02 00:54:59
    Writing application         : mkvmerge v30.1.0 ('Forever And More') 64-bit
    Writing library             : libebml v1.3.6 + libmatroska v1.4.9 / Lavf58.20.100

    Video
    ID                          : 1
    Format                      : AVC
    Format/Info                 : Advanced Video Codec
    Format profile              : [email protected]
    Format settings             : CABAC / 4 Ref Frames
    Format settings, CABAC      : Yes
    Format settings, ReFrames   : 4 frames
    Codec ID                    : V_MPEG4/ISO/AVC
    Duration                    : 1 h 39 min
    Bit rate                    : 6 337 kb/s
    Width                       : 1 920 pixels
    Height                      : 1 080 pixels
    Display aspect ratio        : 16:9
    Frame rate mode             : Constant
    Frame rate                  : 23.976 (24000/1001) FPS
    Color space                 : YUV
    Chroma subsampling          : 4:2:0
    Bit depth                   : 8 bits
    Scan type                   : Progressive
    Bits/(Pixel*Frame)          : 0.127
    Stream size                 : 4.39 GiB (74%)
    Writing library             : x264 core 157 r2935 545de2f
    Encoding settings           : cabac=1 / ref=4 / deblock=1:0:0 / analyse=0x3:0x133 / me=tesa / subme=11 / psy=1 / psy_rd=1.00:0.00 / mixed_ref=1 / me_range=24 / chroma_me=1 / trellis=2 / 8x8dct=1 / cqm=0 / deadzone=21,11 / fast_pskip=0 / chroma_qp_offset=-2 / threads=34 / lookahead_threads=8 / sliced_threads=0 / nr=0 / decimate=1 / interlaced=0 / bluray_compat=0 / constrained_intra=0 / bframes=16 / b_pyramid=2 / b_adapt=2 / b_bias=0 / direct=3 / weightb=1 / open_gop=0 / weightp=2 / keyint=240 / keyint_min=24 / scenecut=40 / intra_refresh=0 / rc_lookahead=60 / rc=crf / mbtree=1 / crf=20.0 / qcomp=0.60 / qpmin=0 / qpmax=69 / qpstep=4 / vbv_maxrate=62500 / vbv_bufsize=78125 / crf_max=0.0 / nal_hrd=none / filler=0 / ip_ratio=1.40 / aq=1:1.00
    Default                     : Yes
    Forced                      : No
    Color range                 : Limited
    Color primaries             : BT.709
    Transfer characteristics    : BT.709
    Matrix coefficients         : BT.709

    Audio #1
    ID                          : 2
    Format                      : AC-3
    Format/Info                 : Audio Coding 3
    Commercial name             : Dolby Digital
    Codec ID                    : A_AC3
    Duration                    : 1 h 39 min
    Bit rate mode               : Constant
    Bit rate                    : 640 kb/s
    Channel(s)                  : 6 channels
    Channel layout              : L R C LFE Ls Rs
    Sampling rate               : 48.0 kHz
    Frame rate                  : 31.250 FPS (1536 SPF)
    Bit depth                   : 16 bits
    Compression mode            : Lossy
    Stream size                 : 454 MiB (8%)
    Title                       : Surround
    Language                    : Spanish
    Service kind                : Complete Main
    Default                     : Yes
    Forced                      : No

    Audio #2
    ID                          : 3
    Format                      : DTS
    Format/Info                 : Digital Theater Systems
    Codec ID                    : A_DTS
    Duration                    : 1 h 39 min
    Bit rate mode               : Constant
    Bit rate                    : 1 509 kb/s
    Channel(s)                  : 6 channels
    Channel layout              : C L R Ls Rs LFE
    Sampling rate               : 48.0 kHz
    Frame rate                  : 93.750 FPS (512 SPF)
    Bit depth                   : 24 bits
    Compression mode            : Lossy
    Stream size                 : 1.05 GiB (18%)
    Title                       : Surround
    Language                    : English
    Default                     : No
    Forced                      : No

    Text #1
    ID                          : 4
    Format                      : PGS
    Muxing mode                 : zlib
    Codec ID                    : S_HDMV/PGS
    Codec ID/Info               : Picture based subtitle format used on BDs/HD-DVDs
    Duration                    : 1 h 31 min
    Bit rate                    : 30.1 kb/s
    Count of elements           : 2084
    Stream size                 : 19.7 MiB (0%)
    Language                    : Spanish
    Default                     : No
    Forced                      : No

    Text #2
    ID                          : 5
    Format                      : PGS
    Muxing mode                 : zlib
    Codec ID                    : S_HDMV/PGS
    Codec ID/Info               : Picture based subtitle format used on BDs/HD-DVDs
    Duration                    : 5 s 255 ms
    Bit rate                    : 50.8 kb/s
    Count of elements           : 2
    Stream size                 : 32.6 KiB (0%)
    Language                    : Spanish
    Default                     : No
    Forced                      : No

    Text #3
    ID                          : 6
    Format                      : PGS
    Muxing mode                 : zlib
    Codec ID                    : S_HDMV/PGS
    Codec ID/Info               : Picture based subtitle format used on BDs/HD-DVDs
    Duration                    : 1 h 36 min
    Bit rate                    : 36.7 kb/s
    Count of elements           : 2686
    Stream size                 : 25.4 MiB (0%)
    Language                    : English
    Default                     : No
    Forced                      : No

    Text #4
    ID                          : 7
    Format                      : UTF-8
    Codec ID                    : S_TEXT/UTF8
    Codec ID/Info               : UTF-8 Plain Text
    Duration                    : 1 h 31 min
    Bit rate                    : 41 b/s
    Count of elements           : 1041
    Stream size                 : 27.5 KiB (0%)
    Language                    : Spanish
    Default                     : No
    Forced                      : No

    Menu
    00:00:00.000                : :Chapter 1
    00:08:39.102                : :Chapter 2
    00:16:47.215                : :Chapter 3
    00:25:37.745                : :Chapter 4
    00:34:20.976                : :Chapter 5
    00:43:28.481                : :Chapter 6
    00:48:32.118                : :Chapter 7
    00:56:07.656                : :Chapter 8
    00:59:09.546                : :Chapter 9
    01:04:57.435                : :Chapter 10
    01:11:49.806                : :Chapter 11
    01:18:10.644                : :Chapter 12
    01:22:04.128                : :Chapter 13
    01:30:06.776                : :Chapter 14
    01:39:14.198                : :Chapter 15

  • Peso: 5.90 GiB

Sinopsis

Descargar El Cascanueces y los Cuatro Reinos (2018) Full HD 1080p Latino, Mega, Google Drive, Torrent. Todo lo que Clara (Mackenzie Foy) quiere es una llave. Durante una fascinante fiesta de Navidad en la que todos reciben sus regalos, su padrino Drosselmeyer (Morgan Freeman) conducirá a la joven hacia esta llave única, que desaparece rápidamente en un extraño y misterioso mundo paralelo. Allí, Clara conocerá a un soldado llamado Phillip (Jayden Fowora-Knight), una pandilla de ratones y a los gobernantes que presiden los tres Reinos: El Reino de las Nieves, el Reino de las Flores, y el Reino de los Dulces. Pero existe un cuarto Reino, el hogar de la tirana Mamá Jengibre (Helen Mirren). Allí comenzaron todos los problemas de estos Reinos de fantasía, cuando Mamá Jengibre inició la guerra reuniendo a sus tropas. En un lugar donde nada es lo que parece, Clara será la única que pueda detener los planes de esta tirana.

Esta película de imagen real es la adaptación de la famosa historia de El Cascanueces, que Tchaikovsky inmortalizó en su famoso ballet, basada en el relato El cascanueces y el rey de los ratones escrito por E.T.A. Hoffmann. El realizador sueco Lasse Hallström (Un viaje de diez metros) y el estadounidense Joe Johnston (Capitán América: El primer vengador) se han encargado de dirigirla, mientras que la escritora Ashleigh Powell se ha ocupado del guión. En el reparto principal encontramos a Mackenzie Foy (Interstellar), Helen Mirren (Winchester: La casa que construyeron los espíritus), Keira Knightley (Piratas del Caribe: La venganza de Salazar), Morgan Freeman (Un golpe con estilo), Richard E. Grant (Logan), Jayden Fowora-Knight (Ready Player One), Ellie Bamber (Orgullo + Prejuicio + Zombis), Matthew Macfadyen (Los tres mosqueteros), Miranda Hart (Espías) y el joven actor Tom Sweet (La infancia de un líder).

Ficha técnica

Video trailer de la película

Enlaces de descarga

Rip de Bluray

Descargar El Cascanueces y los Cuatro Reinos (2018) Full HD 1080p Latino




Aportes de DPeliculasHDmega la pass es:dpeliculashdmega.org Aportes de CinemaniaHD la pass es:cinemaniahdd.com

Películas relacionadas

  • The Final Wish (2018) Full 1080p Subtitulado

    2019
    The Final Wish (2018) Full 1080p Subtitulado

    0.0 1h 35m 2019

    Descargar The Final Wish (2018) Full 1080p Subtitulado. Aaron (Michael Welch) es un abogado con problemas...

    Director: Timothy Woodward Jr.

    Género: FULL 1080p Plateadas

    Actores: Tony Todd

  • La nave del terror (1997) Full 1080p Latino

    1997
    La nave del terror (1997) Full 1080p Latino

    5.0 1h 36m 1997

    En el año 2047 una nave de rescate, la "Lewis & Clark", es enviada a investigar la misteriosa reaparición...

    Director: Paul W.S. Anderson

    Género: Ciencia ficción

    Actores: Teresa May

  • Man On A Ledge (2012) Full (Open Matte) 1080P Latino

    2012
    Man On A Ledge (2012) Full (Open Matte) 1080P Latino

    5.0 1h 42m 2012

    Nick Cassidy (Sam Worthington), un antiguo agente de policía, se escapa de la cárcel y se dirige al...

    Director: Melissa Kalbfus

    Género: Acción

    Actores: William Sadler

Comentarios 0