×

¿Problemas para descargar con Mozilla, EDGE? Deshabilita la opción "Abrir vinculos en una pestaña nueva" tal como lo muestra ésta imagen.

El camino: Una Película De Breaking Bad (2019) REMUX 1080p Latino

318 vistas

Información de El camino: Una Película De Breaking Bad (2019) REMUX 1080p Latino

Datos de la película

  • Calidad: Full 1080p
  • Audio: Se especifica abajo de la Sinopsis
  • Subtitulos: Español Latino PGS - Ingles PGS
  • Resolución: 1920x1080p
  • Formato: MKV
  • Codec: H.264
  • Encoder: Melkor
  • Mediainfo: Clic para Mostrar Datos Ver
  • El Camino Una Película De Breaking Bad (2019) REMUX 1080p Latino.mkv
    Format                      : Matroska
    Format version              : Version 4
    File size                   : 21.9 GiB
    Duration                    : 2 h 2 min
    Overall bit rate mode       : Variable
    Overall bit rate            : 25.7 Mb/s
    Movie name                  : El Camino A Breaking Bad Movie (2019) CinemaniaHDD.Net
    Encoded date                : UTC 2020-10-11 18:45:13
    Writing application         : mkvmerge v51.0.0 ('I Wish') 64-bit
    Writing library             : libebml v1.4.0 + libmatroska v1.6.2
    Attachments                 : CINEMANIAHD.png

    Video
    ID                          : 1
    Format                      : AVC
    Format/Info                 : Advanced Video Codec
    Format profile              : High@L4.1
    Format settings             : CABAC / 2 Ref Frames
    Format settings, CABAC      : Yes
    Format settings, Reference  : 2 frames
    Format settings, GOP        : M=1, N=10
    Codec ID                    : V_MPEG4/ISO/AVC
    Duration                    : 2 h 2 min
    Bit rate mode               : Variable
    Bit rate                    : 22.9 Mb/s
    Width                       : 1 920 pixels
    Height                      : 1 080 pixels
    Display aspect ratio        : 16:9
    Frame rate mode             : Constant
    Frame rate                  : 23.976 (24000/1001) FPS
    Color space                 : YUV
    Chroma subsampling          : 4:2:0
    Bit depth                   : 8 bits
    Scan type                   : Progressive
    Bits/(Pixel*Frame)          : 0.460
    Stream size                 : 19.5 GiB (89%)
    Title                       : REMUX 1080p [CinemaniaHDD]
    Default                     : Yes
    Forced                      : No

    Audio #1
    ID                          : 2
    Format                      : AC-3
    Format/Info                 : Audio Coding 3
    Commercial name             : Dolby Digital
    Codec ID                    : A_AC3
    Duration                    : 2 h 2 min
    Bit rate mode               : Constant
    Bit rate                    : 640 kb/s
    Channel(s)                  : 6 channels
    Channel layout              : L R C LFE Ls Rs
    Sampling rate               : 48.0 kHz
    Frame rate                  : 31.250 FPS (1536 SPF)
    Compression mode            : Lossy
    Stream size                 : 560 MiB (2%)
    Title                       : Español Latino [CinemaniaHDD]
    Language                    : Spanish
    Service kind                : Complete Main
    Default                     : Yes
    Forced                      : No

    Audio #2
    ID                          : 3
    Format                      : DTS XLL
    Format/Info                 : Digital Theater Systems
    Commercial name             : DTS-HD Master Audio
    Codec ID                    : A_DTS
    Duration                    : 2 h 2 min
    Bit rate mode               : Variable
    Bit rate                    : 2 130 kb/s
    Channel(s)                  : 6 channels
    Channel layout              : C L R Ls Rs LFE
    Sampling rate               : 48.0 kHz
    Frame rate                  : 93.750 FPS (512 SPF)
    Bit depth                   : 16 bits
    Compression mode            : Lossless
    Stream size                 : 1.82 GiB (8%)
    Title                       : Ingles [CinemaniaHDD]
    Language                    : English
    Default                     : No
    Forced                      : No

    Text #1
    ID                          : 4
    Format                      : PGS
    Muxing mode                 : zlib
    Codec ID                    : S_HDMV/PGS
    Codec ID/Info               : Picture based subtitle format used on BDs/HD-DVDs
    Duration                    : 2 h 2 min
    Bit rate                    : 22.0 kb/s
    Count of elements           : 2368
    Stream size                 : 19.2 MiB (0%)
    Title                       : Español-PGS [CinemaniaHDD]
    Language                    : Spanish
    Default                     : No
    Forced                      : No

    Text #2
    ID                          : 5
    Format                      : PGS
    Muxing mode                 : zlib
    Codec ID                    : S_HDMV/PGS
    Codec ID/Info               : Picture based subtitle format used on BDs/HD-DVDs
    Duration                    : 1 h 54 min
    Bit rate                    : 25.7 kb/s
    Count of elements           : 2216
    Stream size                 : 21.1 MiB (0%)
    Title                       : Ingles-PGS [CinemaniaHDD]
    Language                    : English
    Default                     : No
    Forced                      : No

    Text #3
    ID                          : 6
    Format                      : UTF-8
    Codec ID                    : S_TEXT/UTF8
    Codec ID/Info               : UTF-8 Plain Text
    Duration                    : 2 h 1 min
    Bit rate                    : 0 b/s
    Count of elements           : 16
    Stream size                 : 388 Bytes (0%)
    Title                       : Forzados-SRT [CinemaniaHDD]
    Language                    : Spanish
    Default                     : Yes
    Forced                      : No

    Text #4
    ID                          : 7
    Format                      : UTF-8
    Codec ID                    : S_TEXT/UTF8
    Codec ID/Info               : UTF-8 Plain Text
    Duration                    : 2 h 1 min
    Bit rate                    : 36 b/s
    Count of elements           : 1183
    Stream size                 : 32.9 KiB (0%)
    Title                       : Español-SRT [CinemaniaHDD]
    Language                    : Spanish
    Default                     : No
    Forced                      : No

    Menu
    00:00:00.000                : en:Chapter 1
    00:06:23.883                : en:Chapter 2
    00:16:44.670                : en:Chapter 3
    00:24:53.033                : en:Chapter 4
    00:37:45.263                : en:Chapter 5
    00:42:40.600                : en:Chapter 6
    00:49:08.237                : en:Chapter 7
    01:04:59.813                : en:Chapter 8
    01:07:57.532                : en:Chapter 9
    01:16:14.528                : en:Chapter 10
    01:19:30.849                : en:Chapter 11
    01:23:06.148                : en:Chapter 12
    01:28:00.484                : en:Chapter 13
    01:33:31.606                : en:Chapter 14
    01:42:17.089                : en:Chapter 15
    01:49:46.955                : en:Chapter 16
    01:57:54.901                : en:Chapter 17

  • Peso: 21.9 GiB

Sinopsis

Descargar El camino: Una Película De Breaking Bad (2019) REMUX 1080p Latino. Tiempo después de los eventos sucedidos tras el último episodio de la serie Breaking Bad, el fugitivo Jesse Pinkman huye de sus perseguidores, de la ley y de su pasado.

Español Latino AC3 5.1 Netflix – Ingles DTS-HD 5.1 Bluray

Ficha técnica

Video trailer de la película

Enlaces de descarga

Rip de Bluray

Descargar El camino: Una Película De Breaking Bad (2019) REMUX 1080p Latino




Aportes de DPeliculasHDmega la pass es:dpeliculashdmega.org Aportes de CinemaniaHD la pass es:cinemaniahdd.com
Guardado en : Acción , Crimen , Drama , Remux , Suspenso

Películas relacionadas

descargar El camino: Una Película De Breaking Bad (2019) REMUX 1080p Latino Full 1080p 1080p gratis, El camino: Una Película De Breaking Bad (2019) REMUX 1080p Latino Full 1080p mega 1 link, El camino: Una Película De Breaking Bad (2019) REMUX 1080p Latino Full 1080p pelicula completa, descargar El camino: Una Película De Breaking Bad (2019) REMUX 1080p Latino Full 1080p gratis en mega.

El camino: Una Película De Breaking Bad (2019) REMUX 1080p Latino pelicula full hd, El camino: Una Película De Breaking Bad (2019) REMUX 1080p Latino mega latino, El camino: Una Película De Breaking Bad (2019) REMUX 1080p Latino 4k latino, El camino: Una Película De Breaking Bad (2019) REMUX 1080p Latino pelicula completa, El camino: Una Película De Breaking Bad (2019) REMUX 1080p Latino descargar gratis, descargar El camino: Una Película De Breaking Bad (2019) REMUX 1080p Latino pelicula latino, El camino: Una Película De Breaking Bad (2019) REMUX 1080p Latino 1 link mega, El camino: Una Película De Breaking Bad (2019) REMUX 1080p Latino 1 link google drive, El camino: Una Película De Breaking Bad (2019) REMUX 1080p Latino hd 1080p latino.
Comentarios 0