×

¿Problemas para descargar con Mozilla, EDGE? Deshabilita la opción "Abrir vinculos en una pestaña nueva" tal como lo muestra ésta imagen.

El Camino: Una película de Breaking Bad (2019) NF WEB-DL HEVC-1080p Latino

1.555 vistas

Información de El Camino: Una película de Breaking Bad (2019) NF WEB-DL HEVC-1080p Latino

Datos de la película

  • Calidad: WEBDL
  • Audio: Español Latino AC3 5.1 Netflix - Ingles AC3 5.1 Netflix
  • Subtitulos: Español Latino SRT- FORZADOS SRT
  • Resolución: 1920x1080
  • Formato: MKV
  • Codec: HEVC
  • Encoder: cinemaniahdd
  • Mediainfo: Clic para Mostrar Datos Ver
  • El Camino -  A Breaking Bad Movie (2019)  NF WEB-DL HEVC-1080p Latino.mkv
    Format                      : Matroska
    Format version              : Version 4
    File size                   : 5.32 GiB
    Duration                    : 2 h 2 min
    Overall bit rate            : 6 210 kb/s
    Movie name                  : El Camino - A Breaking Bad Movie (2019) - CinemaniaHDD.Net
    Encoded date                : UTC 2019-10-11 09:52:41
    Writing application         : mkvmerge v38.0.0 ('The Silent Type') 64-bit
    Writing library             : libebml v1.3.9 + libmatroska v1.5.2

    Video
    ID                          : 1
    Format                      : HEVC
    Format/Info                 : High Efficiency Video Coding
    Format profile              : Main 10@L4@Main
    Codec ID                    : V_MPEGH/ISO/HEVC
    Duration                    : 2 h 2 min
    Bit rate                    : 5 440 kb/s
    Width                       : 1 920 pixels
    Height                      : 1 080 pixels
    Display aspect ratio        : 16:9
    Frame rate mode             : Constant
    Frame rate                  : 24.000 FPS
    Color space                 : YUV
    Chroma subsampling          : 4:2:0
    Bit depth                   : 10 bits
    Bits/(Pixel*Frame)          : 0.109
    Stream size                 : 4.66 GiB (88%)
    Title                       : CinemaniaHDD
    Default                     : Yes
    Forced                      : No
    Color range                 : Limited
    Color primaries             : BT.709
    Transfer characteristics    : BT.709
    Matrix coefficients         : BT.709

    Audio #1
    ID                          : 2
    Format                      : AC-3
    Format/Info                 : Audio Coding 3
    Commercial name             : Dolby Digital
    Codec ID                    : A_AC3
    Duration                    : 2 h 2 min
    Bit rate mode               : Constant
    Bit rate                    : 384 kb/s
    Channel(s)                  : 6 channels
    Channel layout              : L R C LFE Ls Rs
    Sampling rate               : 48.0 kHz
    Frame rate                  : 31.250 FPS (1536 SPF)
    Bit depth                   : 16 bits
    Compression mode            : Lossy
    Stream size                 : 337 MiB (6%)
    Title                       : Español latino [CinemaniaHDD]
    Language                    : Spanish
    Service kind                : Complete Main
    Default                     : Yes
    Forced                      : No

    Audio #2
    ID                          : 3
    Format                      : AC-3
    Format/Info                 : Audio Coding 3
    Commercial name             : Dolby Digital
    Codec ID                    : A_AC3
    Duration                    : 2 h 2 min
    Bit rate mode               : Constant
    Bit rate                    : 384 kb/s
    Channel(s)                  : 6 channels
    Channel layout              : L R C LFE Ls Rs
    Sampling rate               : 48.0 kHz
    Frame rate                  : 31.250 FPS (1536 SPF)
    Bit depth                   : 16 bits
    Compression mode            : Lossy
    Stream size                 : 337 MiB (6%)
    Title                       : Inglés [CinemaniaHDD]
    Language                    : English
    Service kind                : Complete Main
    Default                     : No
    Forced                      : No

    Text #1
    ID                          : 4
    Format                      : UTF-8
    Codec ID                    : S_TEXT/UTF8
    Codec ID/Info               : UTF-8 Plain Text
    Duration                    : 2 h 1 min
    Bit rate                    : 0 b/s
    Count of elements           : 16
    Stream size                 : 388 Bytes (0%)
    Title                       : Forzados [CinemaniaHDD]
    Language                    : Spanish
    Default                     : Yes
    Forced                      : No

    Text #2
    ID                          : 5
    Format                      : UTF-8
    Codec ID                    : S_TEXT/UTF8
    Codec ID/Info               : UTF-8 Plain Text
    Duration                    : 2 h 1 min
    Bit rate                    : 36 b/s
    Count of elements           : 1183
    Stream size                 : 32.9 KiB (0%)
    Title                       : Español latino [CinemaniaHDD]
    Language                    : Spanish
    Default                     : No
    Forced                      : No

     

  • Peso: 5.32 GiB

Sinopsis

Tiempo después de los eventos sucedidos tras el último episodio de la serie «Breaking Bad», el fugitivo Jesse Pinkman huye de sus perseguidores, de la ley y de su pasado.

Ficha técnica

Video trailer de la película

Enlaces de descarga

Rip de Bluray

Descargar El Camino: Una película de Breaking Bad (2019) NF WEB-DL HEVC-1080p Latino




Aportes de DPeliculasHDmega la pass es:dpeliculashdmega.org Aportes de CinemaniaHD la pass es:cinemaniahdd.com
Guardado en : 1080 HEVC , Acción , Crimen , Drama , Netflix , Suspenso

Películas relacionadas

descargar El Camino: Una película de Breaking Bad (2019) NF WEB-DL HEVC-1080p Latino WEBDL 1080p gratis, El Camino: Una película de Breaking Bad (2019) NF WEB-DL HEVC-1080p Latino WEBDL mega 1 link, El Camino: Una película de Breaking Bad (2019) NF WEB-DL HEVC-1080p Latino WEBDL pelicula completa, descargar El Camino: Una película de Breaking Bad (2019) NF WEB-DL HEVC-1080p Latino WEBDL gratis en mega.

El Camino: Una película de Breaking Bad (2019) NF WEB-DL HEVC-1080p Latino pelicula full hd, El Camino: Una película de Breaking Bad (2019) NF WEB-DL HEVC-1080p Latino mega latino, El Camino: Una película de Breaking Bad (2019) NF WEB-DL HEVC-1080p Latino 4k latino, El Camino: Una película de Breaking Bad (2019) NF WEB-DL HEVC-1080p Latino pelicula completa, El Camino: Una película de Breaking Bad (2019) NF WEB-DL HEVC-1080p Latino descargar gratis, descargar El Camino: Una película de Breaking Bad (2019) NF WEB-DL HEVC-1080p Latino pelicula latino, El Camino: Una película de Breaking Bad (2019) NF WEB-DL HEVC-1080p Latino 1 link mega, El Camino: Una película de Breaking Bad (2019) NF WEB-DL HEVC-1080p Latino 1 link google drive, El Camino: Una película de Breaking Bad (2019) NF WEB-DL HEVC-1080p Latino hd 1080p latino.
Comentarios 0