×

¿Problemas para descargar con Mozilla, EDGE? Deshabilita la opción "Abrir vinculos en una pestaña nueva" tal como lo muestra ésta imagen.

El Camino: Una película de Breaking Bad (2019) NF WEB-DL 1080p Latino

1.454 vistas

Información de El Camino: Una película de Breaking Bad (2019) NF WEB-DL 1080p Latino

Datos de la película

  • Calidad:
  • Audio: Español Latino AC3 5.1 Netflix - Ingles AC3 5.1 Netflix
  • Subtitulos: Español Latino SRT- FORZADOS SRT
  • Resolución: 1920x1080
  • Formato: MKV
  • Codec: H.264
  • Encoder: cinemaniahdd
  • Mediainfo: Clic para Mostrar Datos Ver
  • El Camino - A Breaking Bad Movie (2019)  NF WEB-DL 1080p Latino.mkv
    Format                      : Matroska
    Format version              : Version 4
    File size                   : 3.77 GiB
    Duration                    : 2 h 2 min
    Overall bit rate mode       : Variable
    Overall bit rate            : 4 401 kb/s
    Movie name                  : El Camino - A Breaking Bad Movie (2019) - CinemaniaHDD.Net
    Encoded date                : UTC 2019-10-11 07:13:36
    Writing application         : mkvmerge v38.0.0 ('The Silent Type') 64-bit
    Writing library             : libebml v1.3.9 + libmatroska v1.5.2

    Video
    ID                          : 1
    Format                      : AVC
    Format/Info                 : Advanced Video Codec
    Format profile              : Main@L4
    Format settings             : CABAC / 3 Ref Frames
    Format settings, CABAC      : Yes
    Format settings, ReFrames   : 3 frames
    Codec ID                    : V_MPEG4/ISO/AVC
    Duration                    : 2 h 2 min
    Bit rate mode               : Variable
    Bit rate                    : 3 650 kb/s
    Maximum bit rate            : 5 475 kb/s
    Width                       : 1 920 pixels
    Height                      : 1 080 pixels
    Display aspect ratio        : 16:9
    Frame rate mode             : Constant
    Frame rate                  : 24.000 FPS
    Color space                 : YUV
    Chroma subsampling          : 4:2:0
    Bit depth                   : 8 bits
    Scan type                   : Progressive
    Bits/(Pixel*Frame)          : 0.073
    Stream size                 : 3.11 GiB (83%)
    Title                       : CinemaniaHDD
    Writing library             : x264 core 148 r2715 7e75228
    Encoding settings           : cabac=1 / ref=3 / deblock=1:0:0 / analyse=0x1:0x111 / me=umh / subme=10 / psy=1 / psy_rd=1.00:0.00 / mixed_ref=1 / me_range=24 / chroma_me=1 / trellis=2 / 8x8dct=0 / cqm=0 / deadzone=21,11 / fast_pskip=1 / chroma_qp_offset=-2 / threads=8 / lookahead_threads=1 / sliced_threads=0 / nr=0 / decimate=1 / interlaced=0 / bluray_compat=0 / stitchable=1 / constrained_intra=0 / bframes=2 / b_pyramid=0 / b_adapt=2 / b_bias=0 / direct=3 / weightb=1 / open_gop=0 / weightp=2 / keyint=250 / keyint_min=24 / scenecut=0 / intra_refresh=0 / rc_lookahead=48 / rc=2pass / mbtree=1 / bitrate=3650 / ratetol=1.0 / qcomp=0.50 / qpmin=6 / qpmax=51 / qpstep=4 / cplxblur=20.0 / qblur=0.5 / vbv_maxrate=5475 / vbv_bufsize=7300 / nal_hrd=vbr / filler=0 / ip_ratio=1.40 / aq=1:1.00
    Default                     : Yes
    Forced                      : No

    Audio #1
    ID                          : 2
    Format                      : AC-3
    Format/Info                 : Audio Coding 3
    Commercial name             : Dolby Digital
    Codec ID                    : A_AC3
    Duration                    : 2 h 2 min
    Bit rate mode               : Constant
    Bit rate                    : 384 kb/s
    Channel(s)                  : 6 channels
    Channel layout              : L R C LFE Ls Rs
    Sampling rate               : 48.0 kHz
    Frame rate                  : 31.250 FPS (1536 SPF)
    Bit depth                   : 16 bits
    Compression mode            : Lossy
    Stream size                 : 337 MiB (9%)
    Title                       : Español latino [CinemaniaHDD]
    Language                    : Spanish
    Service kind                : Complete Main
    Default                     : Yes
    Forced                      : No

    Audio #2
    ID                          : 3
    Format                      : AC-3
    Format/Info                 : Audio Coding 3
    Commercial name             : Dolby Digital
    Codec ID                    : A_AC3
    Duration                    : 2 h 2 min
    Bit rate mode               : Constant
    Bit rate                    : 384 kb/s
    Channel(s)                  : 6 channels
    Channel layout              : L R C LFE Ls Rs
    Sampling rate               : 48.0 kHz
    Frame rate                  : 31.250 FPS (1536 SPF)
    Bit depth                   : 16 bits
    Compression mode            : Lossy
    Stream size                 : 337 MiB (9%)
    Title                       : Inglés [CinemaniaHDD]
    Language                    : English
    Service kind                : Complete Main
    Default                     : No
    Forced                      : No

    Text #1
    ID                          : 4
    Format                      : UTF-8
    Codec ID                    : S_TEXT/UTF8
    Codec ID/Info               : UTF-8 Plain Text
    Duration                    : 2 h 1 min
    Bit rate                    : 0 b/s
    Count of elements           : 16
    Stream size                 : 388 Bytes (0%)
    Title                       : Forzados [CinemaniaHDD]
    Language                    : Spanish
    Default                     : Yes
    Forced                      : No

    Text #2
    ID                          : 5
    Format                      : UTF-8
    Codec ID                    : S_TEXT/UTF8
    Codec ID/Info               : UTF-8 Plain Text
    Duration                    : 2 h 1 min
    Bit rate                    : 36 b/s
    Count of elements           : 1183
    Stream size                 : 32.9 KiB (0%)
    Title                       : Español latino [CinemaniaHDD]
    Language                    : Spanish
    Default                     : No
    Forced                      : No

     

  • Peso: 3.77 GiB

Sinopsis

Tiempo después de los eventos sucedidos tras el último episodio de la serie «Breaking Bad», el fugitivo Jesse Pinkman huye de sus perseguidores, de la ley y de su pasado.

Ficha técnica

Video trailer de la película

Enlaces de descarga

Rip de Bluray

Descargar El Camino: Una película de Breaking Bad (2019) NF WEB-DL 1080p Latino




Aportes de DPeliculasHDmega la pass es:dpeliculashdmega.org Aportes de CinemaniaHD la pass es:cinemaniahdd.com
Guardado en : Acción , Crimen , Drama , Netflix , Suspenso

Películas relacionadas

  • John Wick Chapter 4 (2023) REMUX 1080p Latino

    John Wick Chapter 4 (2023) REMUX 1080p Latino

    2023
    John Wick Chapter 4 (2023) REMUX 1080p Latino

    2h 50m 2023

    Descargar John Wick Chapter 4 (2023) REMUX 1080p Latino. John Wick descubre un camino para derrotar a...

    Director: Scott Rogers

    Género: Acción

    Actores: Yoshinori Tashiro

  • Sisi (2022) Temporada 2 AMZN WEB-DL 1080p Latino

    Sisi (2022) Temporada 2 AMZN WEB-DL 1080p Latino

    2021
    Sisi (2022) Temporada 2 AMZN WEB-DL 1080p Latino

    0h 45m 2021

    Historia real llena de intriga y deseos. La alocada princesa bávara Sisi se enamora del emperador...

    Director: Sven Bohse

    Género: Drama

    Actores: Tanja Schleiff

  • Inside (2023) PLACEBO Full HD 1080p Latino

    Inside (2023) PLACEBO Full HD 1080p Latino

    2023
    Inside (2023) PLACEBO Full HD 1080p Latino

    1h 45m 2023

    Descargar Inside (2023) PLACEBO Full HD 1080p Latino. Un ladrón de arte de alto nivel, Nemo (Willem...

    Director: Vasilis Katsoupis

    Género: Drama

    Actores: Youl Samare

  • Inside (2023) HD 1080p Latino

    Inside (2023) HD 1080p Latino

    2023
    Inside (2023) HD 1080p Latino

    1h 45m 2023

    Descargar Inside (2023) HD 1080p Latino. Un ladrón de arte de alto nivel, Nemo (Willem Dafoe), queda...

    Director: Vasilis Katsoupis

    Género: Drama

    Actores: Youl Samare

descargar El Camino: Una película de Breaking Bad (2019) NF WEB-DL 1080p Latino 1080p gratis, El Camino: Una película de Breaking Bad (2019) NF WEB-DL 1080p Latino mega 1 link, El Camino: Una película de Breaking Bad (2019) NF WEB-DL 1080p Latino pelicula completa, descargar El Camino: Una película de Breaking Bad (2019) NF WEB-DL 1080p Latino gratis en mega.

El Camino: Una película de Breaking Bad (2019) NF WEB-DL 1080p Latino pelicula full hd, El Camino: Una película de Breaking Bad (2019) NF WEB-DL 1080p Latino mega latino, El Camino: Una película de Breaking Bad (2019) NF WEB-DL 1080p Latino 4k latino, El Camino: Una película de Breaking Bad (2019) NF WEB-DL 1080p Latino pelicula completa, El Camino: Una película de Breaking Bad (2019) NF WEB-DL 1080p Latino descargar gratis, descargar El Camino: Una película de Breaking Bad (2019) NF WEB-DL 1080p Latino pelicula latino, El Camino: Una película de Breaking Bad (2019) NF WEB-DL 1080p Latino 1 link mega, El Camino: Una película de Breaking Bad (2019) NF WEB-DL 1080p Latino 1 link google drive, El Camino: Una película de Breaking Bad (2019) NF WEB-DL 1080p Latino hd 1080p latino.
Comentarios 0