×

¿Problemas para descargar con Mozilla, EDGE? Deshabilita la opción "Abrir vinculos en una pestaña nueva" tal como lo muestra ésta imagen.

El camino de Hill (2023) WEB-DL 1080p Latino

73 vistas

Información de El camino de Hill (2023) WEB-DL 1080p Latino

Datos de la película

  • Calidad: WEBDL
  • Audio: Español Latino AC3 5.1 WEB-DL - Ingles AC3 5.1 WEB-DL
  • Subtitulos: Español Latino SRT- FORZADOS SRT
  • Resolución: 1916x800p
  • Formato: MKV
  • Codec: H.264
  • Encoder: Melkor
  • Mediainfo: Clic para Mostrar Datos Ver
  • The Hill (2023) WEB 1080p Latino.mkv
    Format                      : Matroska
    Format version              : Version 4
    File size                   : 6.56 GiB
    Duration                    : 2 h 6 min
    Overall bit rate            : 7 397 kb/s
    Movie name                  : The Hill (2023) CinemaniaHDD.Net
    Encoded date                : UTC 2024-02-03 05:17:20
    Writing application         : mkvmerge v56.1.0 ('My Friend') 64-bit
    Writing library             : libebml v1.4.2 + libmatroska v1.6.4
    Attachments                 : CINEMANIAHD.png / CINEMANIAHD.png
    Site                        : CinemaniaHDD.Net
    Uploader                    : Melkor

    Video
    ID                          : 1
    Format                      : AVC
    Format/Info                 : Advanced Video Codec
    Format profile              : High@L4
    Format settings             : CABAC / 5 Ref Frames
    Format settings, CABAC      : Yes
    Format settings, Reference  : 5 frames
    Codec ID                    : V_MPEG4/ISO/AVC
    Duration                    : 2 h 6 min
    Bit rate                    : 6 627 kb/s
    Width                       : 1 916 pixels
    Height                      : 800 pixels
    Display aspect ratio        : 2.40:1
    Frame rate mode             : Constant
    Frame rate                  : 23.976 (24000/1001) FPS
    Color space                 : YUV
    Chroma subsampling          : 4:2:0
    Bit depth                   : 8 bits
    Scan type                   : Progressive
    Bits/(Pixel*Frame)          : 0.180
    Stream size                 : 5.87 GiB (90%)
    Title                       : Web HD1080p [CinemaniaHDD]
    Default                     : Yes
    Forced                      : Yes
    Color range                 : Limited
    Color primaries             : BT.709
    Transfer characteristics    : BT.709
    Matrix coefficients         : BT.709

    Audio #1
    ID                          : 2
    Format                      : AC-3
    Format/Info                 : Audio Coding 3
    Commercial name             : Dolby Digital
    Codec ID                    : A_AC3
    Duration                    : 2 h 6 min
    Bit rate mode               : Constant
    Bit rate                    : 384 kb/s
    Channel(s)                  : 6 channels
    Channel layout              : L R C LFE Ls Rs
    Sampling rate               : 48.0 kHz
    Frame rate                  : 31.250 FPS (1536 SPF)
    Compression mode            : Lossy
    Stream size                 : 348 MiB (5%)
    Title                       : Español Latino [CinemaniaHDD]
    Language                    : Spanish
    Service kind                : Complete Main
    Default                     : Yes
    Forced                      : Yes

    Audio #2
    ID                          : 3
    Format                      : AC-3
    Format/Info                 : Audio Coding 3
    Commercial name             : Dolby Digital
    Codec ID                    : A_AC3
    Duration                    : 2 h 6 min
    Bit rate mode               : Constant
    Bit rate                    : 384 kb/s
    Channel(s)                  : 6 channels
    Channel layout              : L R C LFE Ls Rs
    Sampling rate               : 48.0 kHz
    Frame rate                  : 31.250 FPS (1536 SPF)
    Compression mode            : Lossy
    Stream size                 : 348 MiB (5%)
    Title                       : Ingles [CinemaniaHDD]
    Language                    : English
    Service kind                : Complete Main
    Default                     : No
    Forced                      : No

    Text #1
    ID                          : 4
    Format                      : UTF-8
    Codec ID                    : S_TEXT/UTF8
    Codec ID/Info               : UTF-8 Plain Text
    Duration                    : 37 min 3 s
    Bit rate                    : 0 b/s
    Count of elements           : 4
    Stream size                 : 118 Bytes (0%)
    Title                       : Forzados-SRT [CinemaniaHDD]
    Language                    : Spanish
    Default                     : Yes
    Forced                      : Yes

    Text #2
    ID                          : 5
    Format                      : UTF-8
    Codec ID                    : S_TEXT/UTF8
    Codec ID/Info               : UTF-8 Plain Text
    Duration                    : 2 h 5 min
    Bit rate                    : 55 b/s
    Count of elements           : 1619
    Stream size                 : 50.7 KiB (0%)
    Title                       : Español-SRT [CinemaniaHDD]
    Language                    : Spanish
    Default                     : No
    Forced                      : No

    Text #3
    ID                          : 6
    Format                      : UTF-8
    Codec ID                    : S_TEXT/UTF8
    Codec ID/Info               : UTF-8 Plain Text
    Duration                    : 2 h 2 min
    Bit rate                    : 66 b/s
    Count of elements           : 1792
    Stream size                 : 59.8 KiB (0%)
    Title                       : Ingles-SRT [CinemaniaHDD]
    Language                    : English
    Default                     : No
    Forced                      : No

    Menu
    00:00:00.000                : Chapter 01
    00:05:33.166                : Chapter 02
    00:09:50.882                : Chapter 03
    00:19:08.023                : Chapter 04
    00:25:00.834                : Chapter 05
    00:32:46.383                : Chapter 06
    00:40:42.025                : Chapter 07
    00:45:07.582                : Chapter 08
    00:54:23.847                : Chapter 09
    00:57:27.864                : Chapter 10
    01:02:08.812                : Chapter 11
    01:08:27.899                : Chapter 12
    01:13:14.269                : Chapter 13
    01:18:01.431                : Chapter 14
    01:23:07.445                : Chapter 15
    01:30:09.659                : Chapter 16
    01:36:51.603                : Chapter 17
    01:42:09.254                : Chapter 18
    01:52:02.722                : Chapter 19
    01:59:41.598                : Chapter 20

  • Peso: 6.56 GiB

Sinopsis

Descargar El camino de Hill (2023) WEB-DL 1080p Latino. La historia de Rickey Hill, quien supera su discapacidad física y repara la relación con su padre en su búsqueda por convertirse en un jugador de las Grandes Ligas de Béisbol (MLB).

Ficha técnica

Video trailer de la película

Enlaces de descarga

Rip de Bluray

Descargar El camino de Hill (2023) WEB-DL 1080p Latino




Aportes de DPeliculasHDmega la pass es:dpeliculashdmega.org Aportes de CinemaniaHD la pass es:cinemaniahdd.com Aportes recientes:cinemaniahdd.net
Guardado en : Drama , Historia

Películas relacionadas

descargar El camino de Hill (2023) WEB-DL 1080p Latino WEBDL 1080p gratis, El camino de Hill (2023) WEB-DL 1080p Latino WEBDL mega 1 link, El camino de Hill (2023) WEB-DL 1080p Latino WEBDL pelicula completa, descargar El camino de Hill (2023) WEB-DL 1080p Latino WEBDL gratis en mega.

El camino de Hill (2023) WEB-DL 1080p Latino pelicula full hd, El camino de Hill (2023) WEB-DL 1080p Latino mega latino, El camino de Hill (2023) WEB-DL 1080p Latino 4k latino, El camino de Hill (2023) WEB-DL 1080p Latino pelicula completa, El camino de Hill (2023) WEB-DL 1080p Latino descargar gratis, descargar El camino de Hill (2023) WEB-DL 1080p Latino pelicula latino, El camino de Hill (2023) WEB-DL 1080p Latino 1 link mega, El camino de Hill (2023) WEB-DL 1080p Latino 1 link google drive, El camino de Hill (2023) WEB-DL 1080p Latino hd 1080p latino.
Comentarios 0